[bittorrent] Battlefield Collective Gypsy Rose Music Roswell, Georgia 3/10/2019 (Schoeps MK4V'S FOB)

Automated Mailer noreply-bt.e at etree.org
Tue Mar 12 04:33:25 UTC 2019


Band:           Other
Torrent Name:   Battlefield Collective Gypsy Rose Music Roswell, Georgia 3/10/2019 (Schoeps MK4V'S FOB)
Uploaded by:    zmanatl
DB Link:        
Details:        http://bt.etree.org/details.php?id=604677

Contact the seeder at http://db.etree.org/zmanatl

If the link to this show does not work, it was probably removed for
being non-trade-friendly.

Description / text file:
-------------------------
Battlefield Collective
Gypsy Rose Music
Roswell, Georgia
3/10/2019 

Source: Schoeps MK4V'S>CMC6>Lunatec V2>Sound Devices 722 (24/44.1)
FOB/DFC/KFC/ZFC/AARP 6' From Stage, 6 1/2' High
DSP: Sound Devices 722>Sound Forge 10.0>CD Wave>flac(16)
ID3 Tagged In Foobar 2000
Recorded By: Z-Man
Seeded By: Z-Man 

Disc I 

01 Greeting
02 You Swept Me Away
03 I've Just Seen A Face
04 Waiting Up For You
05 If It Hadn't Been For Love
06 Mad World
07 Joey
08 Mountain Song
09 ?
10 ?
11 Zombie
12 Old Number 7
13 Angela
14 These Boots Are Made For Walkin'
15 Rosemary's Field

battlefield2019-03-10d01t01.flac:a408cc3ed770d33495044ddd4d6da575
battlefield2019-03-10d01t02.flac:fd2b28df4a050f03eb1c64327f73cf88
battlefield2019-03-10d01t03.flac:4c30f770093a0b71aaf003fd154df8f9
battlefield2019-03-10d01t04.flac:bef424e512f2943c649866cb162caded
battlefield2019-03-10d01t05.flac:70eb61b1641e504794dca0c1b8317192
battlefield2019-03-10d01t06.flac:6534b970eb2200fe6c74481be86ba0b4
battlefield2019-03-10d01t07.flac:f0fcc6aff205bfdb975c3f15392a67e0
battlefield2019-03-10d01t08.flac:12ddf4d8ca2533944850391739728239
battlefield2019-03-10d01t09.flac:5dbf6e8c502b6efb623f7fd514b10ffb
battlefield2019-03-10d01t10.flac:18cb6f50cefe9f379d1086ef17343d5f
battlefield2019-03-10d01t11.flac:cab46205fccceba4be53d079ffcf4c98
battlefield2019-03-10d01t12.flac:f7db77b6e6d374eb90b6e7c809840e35
battlefield2019-03-10d01t13.flac:27c020de80f0c1a8e08be4df61716d9b
battlefield2019-03-10d01t14.flac:9e079e758d15e5630a6bade3e439f8f8
battlefield2019-03-10d01t15.flac:62e67c8fe452761f236cf243f63e70dc

length     expanded size    cdr  WAVE problems  fmt   ratio  filename
     0:11.37        2027468 B   ---   --   ---xx   flac  0.2982  battlefield2019-03-10d01t01.flac
     4:56.04       52223852 B   ---   --   ---xx   flac  0.5672  battlefield2019-03-10d01t02.flac
     3:37.11       38304716 B   ---   --   ---xx   flac  0.5791  battlefield2019-03-10d01t03.flac
     5:13.33       55290860 B   ---   --   ---xx   flac  0.5593  battlefield2019-03-10d01t04.flac
     6:00.70       63668684 B   ---   --   ---xx   flac  0.5285  battlefield2019-03-10d01t05.flac
     4:52.24       51565292 B   ---   --   ---xx   flac  0.5396  battlefield2019-03-10d01t06.flac
     4:46.68       50610380 B   ---   --   ---xx   flac  0.5163  battlefield2019-03-10d01t07.flac
     4:34.47       48444188 B   ---   --   ---xx   flac  0.5698  battlefield2019-03-10d01t08.flac
     5:47.51       61330796 B   ---   --   ---xx   flac  0.5772  battlefield2019-03-10d01t09.flac
     4:38.55       49168604 B   ---   --   ---xx   flac  0.5083  battlefield2019-03-10d01t10.flac
     5:36.70       59435084 B   ---   --   ---xx   flac  0.5721  battlefield2019-03-10d01t11.flac
     7:46.50       82320044 B   ---   --   ---xx   flac  0.5145  battlefield2019-03-10d01t12.flac
     6:56.07       73398908 B   ---   --   ---xx   flac  0.5728  battlefield2019-03-10d01t13.flac
     3:20.44       35383532 B   ---   --   ---xx   flac  0.5273  battlefield2019-03-10d01t14.flac
     5:50.70       61904684 B   ---   --   ---xx   flac  0.4787  battlefield2019-03-10d01t15.flac
    74:10.41      785077092 B                            0.5421  (15 files)





More information about the bittorrent mailing list