[bittorrent] Barry Richman Trio Dixie Tavern Marietta, Georgia 3/11/2019 (Schoeps MK4V'S FOB)

Automated Mailer noreply-bt.e at etree.org
Tue Mar 12 04:11:11 UTC 2019


Band:           Other
Torrent Name:   Barry Richman Trio Dixie Tavern Marietta, Georgia 3/11/2019 (Schoeps MK4V'S FOB)
Uploaded by:    zmanatl
DB Link:        
Details:        http://bt.etree.org/details.php?id=604676

Contact the seeder at http://db.etree.org/zmanatl

If the link to this show does not work, it was probably removed for
being non-trade-friendly.

Description / text file:
-------------------------
Barry Richman Trio
Dixie Tavern
Marietta, Georgia
3/11/2019 

Source: Schoeps MK4V'S>CMC6>Lunatec V2>Sound Devices 722 (24/44.1)
FOB/DFC/KFC/ZFC/AARP 12' From Stage, 6 1/2' High
DSP: Sound Devices 722>Sound Forge 10.0>CD Wave>flac(16)
ID3 Tagged In Foobar 2000
Recorded By: Z-Man
Seeded By: Z-Man 

Disc I 

01 Greeting From Renard
02 Further On Up The Road
03 The Thrill Is Gone
04 Little Wing
05 Them Changes
06 Band Introductions
07 Macon

barry2019-03-11d01t01.flac:15435ac3cec46bbf80a6d13bc90d32e2
barry2019-03-11d01t02.flac:b60e1e3c6b0129be32d3a8a495c47f24
barry2019-03-11d01t03.flac:6603a95648de2d6703c23680199b62c3
barry2019-03-11d01t04.flac:e90baf516771685eb1b0b561c07e957d
barry2019-03-11d01t05.flac:3344a54a60ce484e9ad3a47e3efe3a9a
barry2019-03-11d01t06.flac:3e7147d4896906921420538b1b88fdd0
barry2019-03-11d01t07.flac:2bc7e9f55a9aff9fbe0dfe518aefdb83

length     expanded size    cdr  WAVE problems  fmt   ratio  filename
     0:47.10        8314364 B   ---   --   ---xx   flac  0.3730  barry2019-03-11d01t01.flac
     5:16.00       55742444 B   ---   --   ---xx   flac  0.5369  barry2019-03-11d01t02.flac
     4:37.04       48872252 B   ---   --   ---xx   flac  0.5178  barry2019-03-11d01t03.flac
     6:43.24       71145692 B   ---   --   ---xx   flac  0.4696  barry2019-03-11d01t04.flac
     4:53.47       51795788 B   ---   --   ---xx   flac  0.6053  barry2019-03-11d01t05.flac
     2:36.33       27596060 B   ---   --   ---xx   flac  0.3444  barry2019-03-11d01t06.flac
     4:18.31       45584156 B   ---   --   ---xx   flac  0.5290  barry2019-03-11d01t07.flac
    29:11.74      309050756 B                            0.5071  (7 files)







More information about the bittorrent mailing list