[bittorrent] Jeremy Wayne Dean Solo Acoustic Gypsy Rose Music Roswell, Georgia 3/10/2019 (Schoeps MK4V'S FOB)

Automated Mailer noreply-bt.e at etree.org
Mon Mar 11 18:55:14 UTC 2019


Band:           Other
Torrent Name:   Jeremy Wayne Dean Solo Acoustic Gypsy Rose Music Roswell, Georgia 3/10/2019 (Schoeps MK4V'S FOB)
Uploaded by:    zmanatl
DB Link:        
Details:        http://bt.etree.org/details.php?id=604672

Contact the seeder at http://db.etree.org/zmanatl

If the link to this show does not work, it was probably removed for
being non-trade-friendly.

Description / text file:
-------------------------
Jeremy Wayne Dean Solo Acoustic
Gypsy Rose Music
Roswell, Georgia
3/10/2019 

Source: Schoeps MK4V'S>CMC6>Lunatec V2>Sound Devices 722 (24/44.1)
FOB/DFC/KFC/ZFC/AARP 10' From Stage, 6 1/2' High
DSP: Sound Devices 722>Sound Forge 10.0>CD Wave>flac(16)
ID3 Tagged In Foobar 2000
Recorded By: Z-Man
Seeded By: Z-Man 

Disc I 1st Set

01 Last Dance With MaryJane
02 Ce La Vie
2nd Set:
03 Spanish Pipedream
04 Folson Prison Blues
05 Badfish >
06 Stealin' My Kisses From You
07 Act Naturally
08 Hotel Yorba
09 Gimme One Reason
10 Fifty Ways To Leave Your Lover
11 Georgia Peaches
12 Walk This Way
13 Ballad Of John And Oko
14 You Gotta Have Faith
15 A Little Light
16 You Can Have The Crown

jeremy2019-03-10d01t01.flac:8b9d120b6227c847d44e6ee94187c772
jeremy2019-03-10d01t02.flac:04b60a62ec15f7f4fb35d90f54792d27
jeremy2019-03-10d01t03.flac:77b75c86f0e235cfb230a5f56c4f1e3f
jeremy2019-03-10d01t04.flac:7c4905a8a5d8a77d8d91b1f1f73cf283
jeremy2019-03-10d01t05.flac:97c9bb4a5f4b0d401a073a0f7e9471e7
jeremy2019-03-10d01t06.flac:63ff7174130aa3b3ae95499a138097db
jeremy2019-03-10d01t07.flac:df12da675033b7873374aead0160ee1f
jeremy2019-03-10d01t08.flac:dc2cf524a0f131c1531bba63f35b914a
jeremy2019-03-10d01t09.flac:26e73f0e21755f019d0c26773132b173
jeremy2019-03-10d01t10.flac:929892c7f1904dcd0e1e435931c4f5c9
jeremy2019-03-10d01t11.flac:bef04a95cc9100b552c7446bed4924b8
jeremy2019-03-10d01t12.flac:ecad015c332c340e904c16478562919b
jeremy2019-03-10d01t13.flac:493f3c128a5c2ef3e0df0c8ba0f7a25a
jeremy2019-03-10d01t14.flac:1bc087d25c1d948a67a4d9977844ed94
jeremy2019-03-10d01t15.flac:ee2614aa797576661eeda87d4adea018
jeremy2019-03-10d01t16.flac:130dd360424366751f8d2316093d9acd

 length     expanded size    cdr  WAVE problems  fmt   ratio  filename
     2:21.15       24907724 B   ---   --   ---xx   flac  0.2201  jeremy2019-03-10d01t01.flac
     3:22.13       35663420 B   ---   --   ---xx   flac  0.2296  jeremy2019-03-10d01t02.flac
     3:46.14       39899372 B   ---   --   ---xx   flac  0.3986  jeremy2019-03-10d01t03.flac
     3:31.67       37378028 B   ---   --   ---xx   flac  0.4242  jeremy2019-03-10d01t04.flac
     3:30.35       37126364 B   ---   --   ---xx   flac  0.4024  jeremy2019-03-10d01t05.flac
     3:21.61       35599916 B   ---   --   ---xx   flac  0.4090  jeremy2019-03-10d01t06.flac
     3:27.68       36674780 B   ---   --   ---xx   flac  0.4121  jeremy2019-03-10d01t07.flac
     2:41.30       28471004 B   ---   --   ---xx   flac  0.4458  jeremy2019-03-10d01t08.flac
     5:46.38       61123820 B   ---   --   ---xx   flac  0.4217  jeremy2019-03-10d01t09.flac
     4:30.51       47747996 B   ---   --   ---xx   flac  0.4073  jeremy2019-03-10d01t10.flac
     3:54.34       41357612 B   ---   --   ---xx   flac  0.4103  jeremy2019-03-10d01t11.flac
     6:07.61       64882316 B   ---   --   ---xx   flac  0.3937  jeremy2019-03-10d01t12.flac
     2:45.59       29244812 B   ---   --   ---xx   flac  0.4261  jeremy2019-03-10d01t13.flac
     3:26.32       36413708 B   ---   --   ---xx   flac  0.3886  jeremy2019-03-10d01t14.flac
     2:29.66       26438876 B   ---   --   ---xx   flac  0.3877  jeremy2019-03-10d01t15.flac
     3:47.71       40209836 B   ---   --   ---xx   flac  0.4201  jeremy2019-03-10d01t16.flac
    58:52.40      623139584 B                            0.3919  (16 files)






More information about the bittorrent mailing list