[bittorrent] Cowboy Junkies City Winery Atlanta, Georgia 3/10/2019 (Schoeps MK4V'S FOB)

Automated Mailer noreply-bt.e at etree.org
Mon Mar 11 06:13:16 UTC 2019


Band:           Cowboy Junkies
Torrent Name:   Cowboy Junkies City Winery Atlanta, Georgia 3/10/2019 (Schoeps MK4V'S FOB)
Uploaded by:    zmanatl
DB Link:        
Details:        http://bt.etree.org/details.php?id=604670

Contact the seeder at http://db.etree.org/zmanatl

If the link to this show does not work, it was probably removed for
being non-trade-friendly.

Description / text file:
-------------------------
Cowboy Junkies 
Ciy Winery
Atlanta, Georgia
3/10/2019 

Source: Schoeps MK4V'S>CMC6>Lunatec V2>Sound Devices 722 (24/44.1)
SOB/DFC/KFC/ZFC/AARP 43' From Stage, 6 1/2' High
DSP: Sound Devices 722>Sound Forge 10.0>CD Wave>flac(16)
ID3 Tagged In Foobar 2000
Recorded By: Z-Man
Seeded By: Z-Man 

Disc I 1st Set

01 Announcements/Band Introduction
02 All That Reckoning Part I
03 Sing Me A Song
04 The Things We Do To Each Other
05 When We Arrive
06 Flirted With You All My Life
07 Cause Cheap Is How I Feel
08 Missing Children > 
09 Mountain Stream 
10 All That Reckoning Part II
2nd Set:
11 Shining Moon

Disc II 2nd Set Con't

01 Escape 
02 200 More Miles 
03 3rd Crusade
04 *Supernatural
05 Banter About Song And Margo's Son
06 *Fairytale
07 *Shining Teeth
08 Misguided Angel >
09 Jam >
10 Sweet Jane 
11 Bea's Song 
12 Thanks To Crew/Band Introductions
13 Driving Wheel
Encore:
14 Thanks
15 Five Years
16 I Don't Get It

* Acoustic Version

Margo Timmins - Vocals
Michael Timmins - Guitar
Peter Timmins - Drums
Alan Anton - Bass
Jeff Burns - Lap Steel Guitar, Mandolin, Harmonica, And Percussion

cowboy2019-03-10d01t01.flac:8ad70463b1f74a88bbd137f11c1f353f
cowboy2019-03-10d01t02.flac:aaf46f4c4db3d7d42486b1a81a7faea1
cowboy2019-03-10d01t03.flac:ad21a1a4621c2fc558beb1231be7276d
cowboy2019-03-10d01t04.flac:d876c64afce17a8c51718fa9e31aa9b0
cowboy2019-03-10d01t05.flac:11880d71255a8c2049573e30a854b4c7
cowboy2019-03-10d01t06.flac:8c5ae311a02ca50f190818026ce41aa7
cowboy2019-03-10d01t07.flac:4e22729aabaa9dc892e719777ba4d652
cowboy2019-03-10d01t08.flac:a28d0f47273438d58f0cd3525a73625c
cowboy2019-03-10d01t09.flac:44915324aefabe169c1d331ff13c42dd
cowboy2019-03-10d01t10.flac:c8ebe1dcf3bf6d9cf29c4cb10dd512a6
cowboy2019-03-10d01t11.flac:92cb1b729dcc50289af64d8808b98b29
cowboy2019-03-10d02t01.flac:2e11d71d227cb365c0aa4e3b1c213f71
cowboy2019-03-10d02t02.flac:f5494233a2d7890c200ba12bdb411071
cowboy2019-03-10d02t03.flac:f279e1904a869c1d187f1266b3ceed37
cowboy2019-03-10d02t04.flac:10adabecb29d80d9a42ef707daf5effd
cowboy2019-03-10d02t05.flac:74a960b868bed971770c593f37379a0b
cowboy2019-03-10d02t06.flac:5aa082dc716d01780ac23c2ba9f53116
cowboy2019-03-10d02t07.flac:deb8c9dced270a956af39bf38623c6e7
cowboy2019-03-10d02t08.flac:1d1662a77c3116e5e1d22c1561651f41
cowboy2019-03-10d02t09.flac:8a5ef653b680e7cff67d1754b651fe69
cowboy2019-03-10d02t10.flac:c9199a2cc1d403b8a78abc054dc73997
cowboy2019-03-10d02t11.flac:54a6e277ed0cbe228d0dce2f6edbce07
cowboy2019-03-10d02t12.flac:fba0439602d218ca2a52559728947166
cowboy2019-03-10d02t13.flac:e67dbad81c1e7adb2ba49dc093fb34c1
cowboy2019-03-10d02t14.flac:2727e8c24cf90a0dd103f6568e2b9595
cowboy2019-03-10d02t15.flac:a647e3318fb3c995767623de0737f616
cowboy2019-03-10d02t16.flac:5aed504a3cf4c6a336bd0c930e562d26

length     expanded size    cdr  WAVE problems  fmt   ratio  filename
     1:33.70       16569884 B   ---   --   ---xx   flac  0.4496  cowboy2019-03-10d01t01.flac
     4:01.33       42590060 B   ---   --   ---xx   flac  0.3829  cowboy2019-03-10d01t02.flac
     5:42.48       60441740 B   ---   --   ---xx   flac  0.5248  cowboy2019-03-10d01t03.flac
     4:14.37       44892668 B   ---   --   ---xx   flac  0.4732  cowboy2019-03-10d01t04.flac
     4:48.49       50918492 B   ---   --   ---xx   flac  0.4918  cowboy2019-03-10d01t05.flac
     3:10.00       33516044 B   ---   --   ---xx   flac  0.4839  cowboy2019-03-10d01t06.flac
     4:56.53       52339100 B   ---   --   ---xx   flac  0.4752  cowboy2019-03-10d01t07.flac
     3:56.43       41731580 B   ---   --   ---xx   flac  0.5351  cowboy2019-03-10d01t08.flac
     5:11.53       54985100 B   ---   --   ---xx   flac  0.4019  cowboy2019-03-10d01t09.flac
     5:44.17       60721628 B   ---   --   ---xx   flac  0.5362  cowboy2019-03-10d01t10.flac
     5:30.56       58343756 B   ---   --   ---xx   flac  0.4590  cowboy2019-03-10d01t11.flac
     4:47.71       50793836 B   ---   --   ---xx   flac  0.1934  cowboy2019-03-10d02t01.flac
     6:10.59       65406812 B   ---   --   ---xx   flac  0.2221  cowboy2019-03-10d02t02.flac
     6:16.57       66460508 B   ---   --   ---xx   flac  0.2750  cowboy2019-03-10d02t03.flac
     3:50.39       40663772 B   ---   --   ---xx   flac  0.1936  cowboy2019-03-10d02t04.flac
     3:55.49       41569292 B   ---   --   ---xx   flac  0.1708  cowboy2019-03-10d02t05.flac
     4:53.38       51774620 B   ---   --   ---xx   flac  0.1941  cowboy2019-03-10d02t06.flac
     4:51.40       51426524 B   ---   --   ---xx   flac  0.1941  cowboy2019-03-10d02t07.flac
     5:02.61       53416316 B   ---   --   ---xx   flac  0.2173  cowboy2019-03-10d02t08.flac
     1:59.17       21031628 B   ---   --   ---xx   flac  0.2102  cowboy2019-03-10d02t09.flac
     7:46.09       82223612 B   ---   --   ---xx   flac  0.2238  cowboy2019-03-10d02t10.flac
     5:09.73       54679340 B   ---   --   ---xx   flac  0.2635  cowboy2019-03-10d02t11.flac
     4:41.57       49702508 B   ---   --   ---xx   flac  0.2112  cowboy2019-03-10d02t12.flac
     7:13.44       76484732 B   ---   --   ---xx   flac  0.2333  cowboy2019-03-10d02t13.flac
     0:20.50        3645644 B   ---   --   ---xx   flac  0.1827  cowboy2019-03-10d02t14.flac
     4:54.22       51913388 B   ---   --   ---xx   flac  0.2673  cowboy2019-03-10d02t15.flac
     5:05.50       53919644 B   ---   --   ---xx   flac  0.2620  cowboy2019-03-10d02t16.flac
   125:51.70     1332162228 B                            0.3228  (27 files)





More information about the bittorrent mailing list