[bittorrent] Cowboy Junkies City Winery Atlanta, Georgia 3/9/2019 (Schoeps MK4V'S FOB)

Automated Mailer noreply-bt.e at etree.org
Sun Mar 10 16:21:25 UTC 2019


Band:           Cowboy Junkies
Torrent Name:   Cowboy Junkies City Winery Atlanta, Georgia 3/9/2019 (Schoeps MK4V'S FOB)
Uploaded by:    zmanatl
DB Link:        
Details:        http://bt.etree.org/details.php?id=604661

Contact the seeder at http://db.etree.org/zmanatl

If the link to this show does not work, it was probably removed for
being non-trade-friendly.

Description / text file:
-------------------------
Cowboy Junkies 
Ciy Winery
Atlanta, Georgia
3/9/2019 

Source: Schoeps MK4V'S>CMC6>Lunatec V2>Sound Devices 722 (24/44.1)
SOB/DFC/KFC/ZFC/AARP 43' From Stage, 6 1/2' High
DSP: Sound Devices 722>Sound Forge 10.0>CD Wave>flac(16)
ID3 Tagged In Foobar 2000
Recorded By: Z-Man
Seeded By: Z-Man 

Disc I 1st Set

01 Announcements/Introduction
02 All That Reckoning Part I
03 Sing Me A Song
04 The Things We Do To Each Other
05 Wooden Stairs
06 Horse
07 Dreaming
08 Missing Children >
09 Mountain Stream
10 All That Reckoning Part II 

Disc II 2nd Set

01 Late Night Radio
02 200 More Miles
03 Disaster
04 Workin' On A Building
05 *Powderfinger
06 *Rake
07 *Shining Teeth

Disc III 2nd Set Con't 

01 He Will Call You Baby >
02 Jam >
03 Sweet Jane 
04 Hunted
05 Thanks/Band Introductions
06 Misguided Angel
Encore:
07 Thanks 
08 Five Years
09 Walkin' After Midnight
10 Closing Jam/Outro

* Acoustic

cowboy2019-03-09d01t01.flac:18179ba7501b69a769bda8f371e6d520
cowboy2019-03-09d01t02.flac:8ff67415088b8e51afd8d9c0a3292f13
cowboy2019-03-09d01t03.flac:29f11c7daf2b6363cd19a9babf7f4133
cowboy2019-03-09d01t04.flac:8bf65e90b1933b5a6d9e8240ede6cefa
cowboy2019-03-09d01t05.flac:bda9a1cf6c75e9b28654e87403fbf615
cowboy2019-03-09d01t06.flac:999291bdacb8681c30fa52b8b690c66c
cowboy2019-03-09d01t07.flac:5a03febb1ddb9e8887d68548ea6af2d0
cowboy2019-03-09d01t08.flac:d8908e9a549543e3350414a933b63dd8
cowboy2019-03-09d01t09.flac:fdfddfa72d1b177933e7316bab222ecd
cowboy2019-03-09d01t10.flac:3385374ee19d0d94b4eab3440b0fdcc7
cowboy2019-03-09d02t01.flac:b43ad90c3d299a18c21ab801a1680300
cowboy2019-03-09d02t02.flac:783b19715cf968e8cb1bae79bc58b656
cowboy2019-03-09d02t03.flac:2f49d0c117ce072bd70dc7ed66102de3
cowboy2019-03-09d02t04.flac:19e37f6102bd1c081cea46024f8c57fb
cowboy2019-03-09d02t05.flac:269c163757d235efd10af370e0d437fd
cowboy2019-03-09d02t06.flac:bca6866ecf969cd62e92b34fad90e0af
cowboy2019-03-09d02t07.flac:4b58bf7bb01a4c17a86f60c60a88e7b5
cowboy2019-03-09d03t01.flac:572ee39704f5dd7d98c1fa517c0acd08
cowboy2019-03-09d03t02.flac:678066332947616c464b14761bd5837e
cowboy2019-03-09d03t03.flac:8d9a9f89ae79b972176c9b1a9f442ab3
cowboy2019-03-09d03t04.flac:b0bf9576ed9cf9a45a4139ccccdd03b2
cowboy2019-03-09d03t05.flac:2641d97b2a5e4d36df32d2839b32b757
cowboy2019-03-09d03t06.flac:34317940a2bc3180f0840cc90fe8275c
cowboy2019-03-09d03t07.flac:ecd6ee43e0ad8067aca66a628d7d5f9c
cowboy2019-03-09d03t08.flac:96e34b8bacb7d128507b0dcae408bf0c
cowboy2019-03-09d03t09.flac:065b5ba5080c54389039bc3b1a56600d
cowboy2019-03-09d03t10.flac:32d5df68973bab732008f628c5331b8f

length     expanded size    cdr  WAVE problems  fmt   ratio  filename
     1:26.34       15250412 B   ---   --   ---xx   flac  0.4675  cowboy2019-03-09d01t01.flac
     4:03.05       42877004 B   ---   --   ---xx   flac  0.3905  cowboy2019-03-09d01t02.flac
     5:26.41       57602876 B   ---   --   ---xx   flac  0.5455  cowboy2019-03-09d01t03.flac
     3:59.26       42220796 B   ---   --   ---xx   flac  0.4950  cowboy2019-03-09d01t04.flac
     5:17.38       56008220 B   ---   --   ---xx   flac  0.4168  cowboy2019-03-09d01t05.flac
     4:00.34       42416012 B   ---   --   ---xx   flac  0.5097  cowboy2019-03-09d01t06.flac
     4:50.50       51273644 B   ---   --   ---xx   flac  0.4024  cowboy2019-03-09d01t07.flac
     3:46.35       39948764 B   ---   --   ---xx   flac  0.5457  cowboy2019-03-09d01t08.flac
     6:19.60       66996764 B   ---   --   ---xx   flac  0.4122  cowboy2019-03-09d01t09.flac
     5:31.72       58557788 B   ---   --   ---xx   flac  0.5326  cowboy2019-03-09d01t10.flac
     5:11.56       54992156 B   ---   --   ---xx   flac  0.4902  cowboy2019-03-09d02t01.flac
     4:09.59       44062412 B   ---   --   ---xx   flac  0.4881  cowboy2019-03-09d02t02.flac
     4:17.56       45466556 B   ---   --   ---xx   flac  0.5163  cowboy2019-03-09d02t03.flac
    16:21.64      173198972 B   ---   --   ---xx   flac  0.4597  cowboy2019-03-09d02t04.flac
     6:59.11       73937516 B   ---   --   ---xx   flac  0.3805  cowboy2019-03-09d02t05.flac
     4:36.20       48733484 B   ---   --   ---xx   flac  0.4229  cowboy2019-03-09d02t06.flac
     4:42.45       49850684 B   ---   --   ---xx   flac  0.3848  cowboy2019-03-09d02t07.flac
     6:05.32       64461308 B   ---   --   ---xx   flac  0.4608  cowboy2019-03-09d03t01.flac
     2:11.19       23153132 B   ---   --   ---xx   flac  0.3690  cowboy2019-03-09d03t02.flac
     6:25.01       67916396 B   ---   --   ---xx   flac  0.4866  cowboy2019-03-09d03t03.flac
     5:24.15       57188924 B   ---   --   ---xx   flac  0.5893  cowboy2019-03-09d03t04.flac
     4:42.41       49841276 B   ---   --   ---xx   flac  0.4289  cowboy2019-03-09d03t05.flac
     5:21.64       56774972 B   ---   --   ---xx   flac  0.4757  cowboy2019-03-09d03t06.flac
     0:27.45        4868684 B   ---   --   ---xx   flac  0.4748  cowboy2019-03-09d03t07.flac
     4:34.52       48455948 B   ---   --   ---xx   flac  0.5291  cowboy2019-03-09d03t08.flac
     5:14.70       55554284 B   ---   --   ---xx   flac  0.5045  cowboy2019-03-09d03t09.flac
     1:44.03       18352700 B   ---   --   ---xx   flac  0.5281  cowboy2019-03-09d03t10.flac
   133:12.73     1409961684 B                            0.4688  (27 files)







More information about the bittorrent mailing list