[bittorrent] gd1988-06-28.145612.ots.akg460.ackerman.miller.noel.t-flac16

Automated Mailer noreply-bt.e at etree.org
Sat Mar 9 15:21:29 UTC 2019


Band:           Grateful Dead
Torrent Name:   gd1988-06-28.145612.ots.akg460.ackerman.miller.noel.t-flac16
Uploaded by:    norm
DB Link:        
Details:        http://bt.etree.org/details.php?id=604654

Contact the seeder at http://db.etree.org/norm

If the link to this show does not work, it was probably removed for
being non-trade-friendly.

Description / text file:
-------------------------
141703 24 > 16 - same HASH served @ Lossless Legs

Grateful Dead

June 28, 1988
Saratoga Performing Arts Center, 
Saratoga Springs, NY
Sets I & II

Ackerman Archives

Recording Info:
Ray Ackerman's Master Audience Cassettes; AKG 460 w/ck63 caps > AKG B18 phantom power unit > Sony D5

Transfer Info:
Master Cassettes (Sony TCK71) > Grace Design Lunatec V3 (Oade modified) > M-Audio MicroTrack II (wav 24-bit/96k)

Edited & Mastered by Joe Noel
WAV > Audacity > FLAC 24/96
April 10, 2018

This file set is 16 bit @ 44.1

Patch info:
- shnid 132524 (Nak 100) supplies
- s2t05; 5:15 - 5:36

Notes:
- upgrade to shnid 110953 (lineage confirmed)
- Thanks to Ray for sharing his masters
- Thanks to Charlie for coordinating
- Grateful for Seremetcc's efforts that supply the patch
- pauses & tape flips were cross faded in set one
- John Scher intro (s1)

- Set I -
s1t01 - Hell in a Bucket ->
s1t02 - Bertha ->
s1t03 - Walkin' Blues
s1t04 - Candyman
s1t05 - When I Paint My Masterpiece
s1t06 - Row Jimmy
s1t07 - Victim or the Crime ->
s1t08 - Foolish Heart

- Set II -
s2t01 - Scarlet Begonias ->
s2t02 - Fire on the Mountain
s2t03 - Estimated Prophet ->
s2t04 - Crazy Fingers ->
s2t05 - Drums ->
s2t06 - Space ->
s2t07 - I Will Take You Home ->
s2t08 - Goin' Down The Road Feelin' Bad ->
s2t09 - I Need a Miracle ->
s2t10 - Stella Blue ->
s2t11 - Not Fade Away
s2t12 - NFA chant
s2t13 - Knockin' On Heaven's Door

Tagging notes:
Show information is embedded within the header of each flac file. 
It will display on any player capable of directly playing flac files. 
If converted to wav during processing, all tags will be stripped, 
however audio data will remain unaffected. If you must 
transcode to a lossy format, do so directly Flac > Lossy.
Use ffp or st5 to validate audio integrity.
Md5 values will change if tagging is altered.
[J.Noel 10 April 2018]

    length     expanded size    cdr  WAVE problems  fmt   ratio  filename
     6:33.59       69464012 B   ---   --   ---xx   flac  0.6749  gd88-06-28.s1t01.flac
     7:06.39       75238172 B   ---   --   ---xx   flac  0.6679  gd88-06-28.s1t02.flac
     6:46.59       71757212 B   ---   --   ---xx   flac  0.6311  gd88-06-28.s1t03.flac
     6:52.10       72700364 B   ---   --   ---xx   flac  0.6062  gd88-06-28.s1t04.flac
     4:58.56       52698956 B   ---   --   ---xx   flac  0.6135  gd88-06-28.s1t05.flac
    10:59.08      116266460 B   ---   --   ---xx   flac  0.6205  gd88-06-28.s1t06.flac
     5:27.65       57835724 B   ---   --   ---xx   flac  0.6509  gd88-06-28.s1t07.flac
     8:36.72       91191788 B   ---   --   ---xx   flac  0.6656  gd88-06-28.s1t08.flac
    10:17.39      108930572 B   ---   --   ---xx   flac  0.6511  gd88-06-28.s2t01.flac
    11:21.12      120156668 B   ---   --   ---xx   flac  0.6483  gd88-06-28.s2t02.flac
    10:20.53      109492700 B   ---   --   ---xx   flac  0.6345  gd88-06-28.s2t03.flac
     9:35.19      101474732 B   ---   --   ---xx   flac  0.6249  gd88-06-28.s2t04.flac
     8:12.11       86814716 B   ---   --   ---xx   flac  0.6061  gd88-06-28.s2t05.flac
     8:57.64       94877372 B   ---   --   ---xx   flac  0.5062  gd88-06-28.s2t06.flac
     3:34.74       37923692 B   ---   --   ---xx   flac  0.4966  gd88-06-28.s2t07.flac
     7:45.06       82040156 B   ---   --   ---xx   flac  0.6011  gd88-06-28.s2t08.flac
     4:03.12       42893468 B   ---   --   ---xx   flac  0.6396  gd88-06-28.s2t09.flac
     8:42.09       92102012 B   ---   --   ---xx   flac  0.5610  gd88-06-28.s2t10.flac
     7:34.67       80243228 B   ---   --   ---xx   flac  0.5894  gd88-06-28.s2t11.flac
     3:16.03       34581500 B   ---   --   ---xx   flac  0.5116  gd88-06-28.s2t12.flac
     8:29.73       89959340 B   ---   --   ---xx   flac  0.5252  gd88-06-28.s2t13.flac
   159:32.60     1688642844 B                            0.6106  (21 files)



More information about the bittorrent mailing list