[bittorrent] Mike Gordon Band Variety Playhouse Atlanta, Georgia 3/8/2019 (Schoeps MK4V'S FOB)

Automated Mailer noreply-bt.e at etree.org
Sat Mar 9 06:57:17 UTC 2019


Band:           Mike Gordon
Torrent Name:   Mike Gordon Band Variety Playhouse Atlanta, Georgia 3/8/2019 (Schoeps MK4V'S FOB)
Uploaded by:    zmanatl
DB Link:        
Details:        http://bt.etree.org/details.php?id=604650

Contact the seeder at http://db.etree.org/zmanatl

If the link to this show does not work, it was probably removed for
being non-trade-friendly.

Description / text file:
-------------------------
Mike Gordon Band
Variety Playhouse
Atlanta, Georgia
3/8/2019 

Source: Schoeps MK4V'S>CMC6>Lunatec V2>Sound Devices 722 (24/44.1)
FOB/DFC/KFC/ZFC/AARP Center Section, Row M, Between Seats 7 & 8, 8' High
DSP: Sound Devices 722>Sound Forge 10.0>CD Wave>flac(16)
ID3 Tagged In Foobar 2000
Recorded By: Z-Man
Seeded By: Z-Man 

Disc I 1st Set

01 Steps
02 Stealing Jamaica
03 *Acid Man
04 Mind Mischief
05 Cities
06 Infinite
07 Tiny Little World
08 Victim 3D 

Disc II 2nd Set

01 Let's Go >
02 Peel
03 Marissa
04 Jumping
05 The Sughn Never Sets
06 D'yer Mak'er >
07 Say Something 
Encore:
08 How Many People Are You

* First Time Played

Mike Gordon - Bass And Vocals
Scott Murawski - Guitar And Vocals
Robert Walter - Keyboards And Vocals
John Kimock - Drums
Craig Myers - Percussion

mike2019-03-08d01t01.flac:4715b93cad2d3864f1b18f94cf78b8c4
mike2019-03-08d01t02.flac:1fb9175dffd270e0d1526a781554924f
mike2019-03-08d01t03.flac:83bde63ea6117b26276bb5db7fc92107
mike2019-03-08d01t04.flac:3f4e111911339ab94ded2ae7e13e230b
mike2019-03-08d01t05.flac:6b2228287754d1df5909cfa2ff6030a0
mike2019-03-08d01t06.flac:0d312b5dd9c0f8b9786bdaebe1a14175
mike2019-03-08d01t07.flac:9a327d6de94012e8e5c8b71779c68a78
mike2019-03-08d01t08.flac:bb1079ce655c7a90fae87f18968a2b20
mike2019-03-08d02t01.flac:e758d397bcff7f341f9fa380cf717054
mike2019-03-08d02t02.flac:da0b392163cd7a5c1a2e744eff9d22b9
mike2019-03-08d02t03.flac:25044bc05b7319a0eee49f00ee8dec09
mike2019-03-08d02t04.flac:d768f9ba91c4e505b1e6ae5be2bba955
mike2019-03-08d02t05.flac:32c00e57f8f159ad3e7a0fa5175f6b78
mike2019-03-08d02t06.flac:8c816948ef77d87c04d81d18be7e82cd
mike2019-03-08d02t07.flac:73e525a2797de44457735f06fc49ee92
mike2019-03-08d02t08.flac:f89ab607d0aeadbad04fd9bd6c210771

length     expanded size    cdr  WAVE problems  fmt   ratio  filename
     8:19.74       88197692 B   ---   --   ---xx   flac  0.4998  mike2019-03-08d01t01.flac
     8:47.33       93040460 B   ---   --   ---xx   flac  0.4882  mike2019-03-08d01t02.flac
     6:35.14       69710972 B   ---   --   ---xx   flac  0.4652  mike2019-03-08d01t03.flac
     6:41.42       70835228 B   ---   --   ---xx   flac  0.5316  mike2019-03-08d01t04.flac
     6:42.15       70948124 B   ---   --   ---xx   flac  0.5613  mike2019-03-08d01t05.flac
     7:17.61       77230316 B   ---   --   ---xx   flac  0.5245  mike2019-03-08d01t06.flac
     9:18.54       98558252 B   ---   --   ---xx   flac  0.5426  mike2019-03-08d01t07.flac
     6:40.18       70602380 B   ---   --   ---xx   flac  0.5845  mike2019-03-08d01t08.flac
     6:30.19       68840732 B   ---   --   ---xx   flac  0.5262  mike2019-03-08d02t01.flac
    11:49.25      125126444 B   ---   --   ---xx   flac  0.4782  mike2019-03-08d02t02.flac
     8:09.64       86410172 B   ---   --   ---xx   flac  0.4998  mike2019-03-08d02t03.flac
    14:18.12      151379468 B   ---   --   ---xx   flac  0.5061  mike2019-03-08d02t04.flac
     8:47.11       92988716 B   ---   --   ---xx   flac  0.5532  mike2019-03-08d02t05.flac
     5:14.00       55389644 B   ---   --   ---xx   flac  0.5303  mike2019-03-08d02t06.flac
    12:55.35      136792364 B   ---   --   ---xx   flac  0.5625  mike2019-03-08d02t07.flac
    14:18.31      151424156 B   ---   --   ---xx   flac  0.5383  mike2019-03-08d02t08.flac
   142:25.58     1507475120 B                            0.5239  (16 files)





More information about the bittorrent mailing list