[bittorrent] gd1988-05-01.145596.fob.nak700.anon.noel.t-flac16

Automated Mailer noreply-bt.e at etree.org
Fri Mar 8 21:20:15 UTC 2019


Band:           Grateful Dead
Torrent Name:   gd1988-05-01.145596.fob.nak700.anon.noel.t-flac16
Uploaded by:    norm
DB Link:        
Details:        http://bt.etree.org/details.php?id=604649

Contact the seeder at http://db.etree.org/norm

If the link to this show does not work, it was probably removed for
being non-trade-friendly.

Description / text file:
-------------------------
Grateful Dead

May 01, 1988
Frost Amphitheater, 
Stanford University, 
Palo Alto, CA
Sets I & II

In Celebration of the Pearl Anniversary

Lineage: Nakamichi 700 cardioids front of board -> tcd5m (master) -> Korg mr1000 (1 bit, 5.6 Mhz) -> render in AudioGate to 24 bits 48 khz sampling.

This file set is 16 bit @ 44.1

Patch info:
- shnid 118671 (Superscope EC-7's)
- s2t07; 08:12 - end
- s2t08; start - 00:08

Notes:
- Enjoy!
- Grateful for Jeff Bowen's source that supplies the patch.
- tape flip (s1) cross faded

Mastered by Joe Noel
Flac > Audacity > Flac
April 27, 2018

- Set I -
s1t01 - crowd - tuning
s1t02 - Box of Rain ->
s1t03 - Hell in a Bucket ->
s1t04 - Touch of Grey ->
s1t05 - Little Red Rooster
s1t06 - Far From Me
s1t07 - Cumberland Blues
s1t08 - Stuck Inside of Mobile with Memphis Blues Again
s1t09 - When Push Comes To Shove
s1t10 - Cassidy

- Set II -
s2t01 - crowd - tuning
s2t02 - Louie Louie ->
s2t03 - Truckin' ->
s2t04 - Crazy Fingers ->
s2t05 - Samson and Delilah
s2t06 - Eyes of the World ->
s2t07 - Drums ->
s2t08 - Space ->
s2t09 - The Other One ->
s2t10 - Wharf Rat ->
s2t11 - Throwing Stones ->
s2t12 - Turn On Your Love Light
s2t13 - encore break
s2t14 - Knockin' On Heaven's Door

Tagging notes:
Show information is embedded within the header of each flac file. 
It will display on any player capable of directly playing flac files. 
If converted to wav during processing, all tags will be stripped, 
however audio data will remain unaffected. If you must 
transcode to a lossy format, do so directly Flac > Lossy.
Use ffp or st5 to validate audio integrity.
Md5 values will change if tagging is altered.
[J. Noel 27 April 2018]

    length     expanded size    cdr  WAVE problems  fmt   ratio  filename
     2:23.24       25281692 B   ---   --   ---xx   flac  0.4345  gd88-05-01.s1t01.flac
     5:05.31       53874956 B   ---   --   ---xx   flac  0.6063  gd88-05-01.s1t02.flac
     5:58.70       63315884 B   ---   --   ---xx   flac  0.6586  gd88-05-01.s1t03.flac
     6:20.48       67144940 B   ---   --   ---xx   flac  0.6666  gd88-05-01.s1t04.flac
     9:52.30      104499404 B   ---   --   ---xx   flac  0.5946  gd88-05-01.s1t05.flac
     5:29.04       58045052 B   ---   --   ---xx   flac  0.6238  gd88-05-01.s1t06.flac
     5:28.68       58019180 B   ---   --   ---xx   flac  0.6269  gd88-05-01.s1t07.flac
     8:55.08       94392860 B   ---   --   ---xx   flac  0.6711  gd88-05-01.s1t08.flac
     4:40.19       49436732 B   ---   --   ---xx   flac  0.6719  gd88-05-01.s1t09.flac
     6:41.16       70774076 B   ---   --   ---xx   flac  0.6512  gd88-05-01.s1t10.flac
     1:04.54       11416652 B   ---   --   ---xx   flac  0.4047  gd88-05-01.s2t01.flac
     4:45.44       50377532 B   ---   --   ---xx   flac  0.6272  gd88-05-01.s2t02.flac
     6:50.69       72486332 B   ---   --   ---xx   flac  0.6662  gd88-05-01.s2t03.flac
     7:58.47       84429788 B   ---   --   ---xx   flac  0.6103  gd88-05-01.s2t04.flac
     8:10.38       86525420 B   ---   --   ---xx   flac  0.6717  gd88-05-01.s2t05.flac
     8:37.21       91248236 B   ---   --   ---xx   flac  0.6486  gd88-05-01.s2t06.flac
     8:39.58       91688060 B   ---   --   ---xx   flac  0.5554  gd88-05-01.s2t07.flac
     8:05.00       85554044 B   ---   --   ---xx   flac  0.5138  gd88-05-01.s2t08.flac
     6:14.69       66135932 B   ---   --   ---xx   flac  0.6145  gd88-05-01.s2t09.flac
     8:43.04       92266652 B   ---   --   ---xx   flac  0.6098  gd88-05-01.s2t10.flac
     8:54.50       94315244 B   ---   --   ---xx   flac  0.6514  gd88-05-01.s2t11.flac
     5:10.74       54858092 B   ---   --   ---xx   flac  0.6543  gd88-05-01.s2t12.flac
     3:39.36       38716316 B   ---   --   ---xx   flac  0.4879  gd88-05-01.s2t13.flac
     7:47.02       82383548 B   ---   --   ---xx   flac  0.6129  gd88-05-01.s2t14.flac
   155:37.59     1647186624 B                            0.6188  (24 files)



More information about the bittorrent mailing list