[bittorrent] Tyler Neal Band From The Earth Brewing Company Roswell, Georgia 3/7/2019 (Schoeps MK4V'S FOB)

Automated Mailer noreply-bt.e at etree.org
Fri Mar 8 20:49:00 UTC 2019


Band:           Other
Torrent Name:   Tyler Neal Band From The Earth Brewing Company Roswell, Georgia 3/7/2019 (Schoeps MK4V'S FOB)
Uploaded by:    zmanatl
DB Link:        
Details:        http://bt.etree.org/details.php?id=604648

Contact the seeder at http://db.etree.org/zmanatl

If the link to this show does not work, it was probably removed for
being non-trade-friendly.

Description / text file:
-------------------------
Tyler Neal Band
>From The Earth Brewing Company
Roswell, Georgia
3/7/2019 

Source: Schoeps MK4V'S>CMC6>Lunatec V2>Sound Devices 722 (24/44.1)
FOB/DFC/KFC/ZFC/AARP 2' From Stage, 6 1/2' High
DSP: Sound Devices 722>Sound Forge 10.0>CD Wave>flac(16)
ID3 Tagged In Foobar 2000
Recorded By: Z-Man
Seeded By: Z-Man 

Disc I 1st Set

01 Greeting By Zach White
02 Goin' Down The Road Feelin' Bad
03 Little Martha
04 These Days
05 Down South In New Orleans
06 When I'm Kissin' My Love
07 Ain't Nothin' You Can Do >
08 Fixin' To Die >
09 Done Somebody Wrong
10 Nothin' To Lose
11 Down Yonder, Down On The Farm
12 Band Introductions/Outro

Disc II 2nd Set

01 I'll Drowned In My Tears   
02 
03 Got My MoJo Workin'
04 I Wish It Would Rain >
05 Jam >
06 When The Saints Go Marchin' In
07 Hello My Old Friend
08 Honky Tonk Women
09 Ride Me High
10 Band Introductions
11 Boogie On Reggae Woman

Tyler Neal - Resonater Guitar And Vocals
Hill Roberts - Bass And Vocals
Chad Mason - Keyboards And Vocals
Dallas Dawson - Drums

tyler2019-03-07d01t01.flac:5394d0a2fc1f080d8a81978a4c47611b
tyler2019-03-07d01t02.flac:c6ac7e18476848320c1a1f4d4c9491ce
tyler2019-03-07d01t03.flac:1bc521a86c909ba88307967dadaa01aa
tyler2019-03-07d01t04.flac:26d751a8770da4a128c9b9d9f0a63357
tyler2019-03-07d01t05.flac:7681bfc8ab00ca1396eae78bffdac566
tyler2019-03-07d01t06.flac:aad5b9b3afa156274a4570c9a80fea11
tyler2019-03-07d01t07.flac:89c8c7a3e99d304dcc84b35da085fade
tyler2019-03-07d01t08.flac:365065d56861e190fb04a11b3648a494
tyler2019-03-07d01t09.flac:693d11e443f1c921fb607b83675708c1
tyler2019-03-07d01t10.flac:7c95f402352a81b4105697693f677b6d
tyler2019-03-07d01t11.flac:ecd0086f039c25ccff7a6b5192beb11c
tyler2019-03-07d01t12.flac:c2c176ef61ab9e4cce48cf96a6ca57ba
tyler2019-03-07d02t01.flac:9596765ce9afd3539cdc8f8e61470933
tyler2019-03-07d02t02.flac:903b5668416f8ad4ba2788bef5eb4c07
tyler2019-03-07d02t03.flac:05e8d7df35cd944473e4194e5b54ab91
tyler2019-03-07d02t04.flac:42e104487149b7d7abdeb56bd8f44041
tyler2019-03-07d02t05.flac:c67d47a074d564aee99ad7093eb7a36e
tyler2019-03-07d02t06.flac:47a7aa5136c87af2db5ff6bf43221dde
tyler2019-03-07d02t07.flac:df45e19312954419f568b643a35cae50
tyler2019-03-07d02t08.flac:e0316e38c8e97e7e05477f9ae9bd9335
tyler2019-03-07d02t09.flac:f47058b4f3eb3fd3a5b0142a1bea539c
tyler2019-03-07d02t10.flac:77c01c8865c678ed129a970b056e9862
tyler2019-03-07d02t11.flac:ae63e3f3ae18f75a630403e4c7d3c3a0

length     expanded size    cdr  WAVE problems  fmt   ratio  filename
     1:34.33       16659260 B   ---   --   ---xx   flac  0.3562  tyler2019-03-07d01t01.flac
     9:05.14       96170972 B   ---   --   ---xx   flac  0.5257  tyler2019-03-07d01t02.flac
     7:16.65       77063324 B   ---   --   ---xx   flac  0.4883  tyler2019-03-07d01t03.flac
     5:27.05       57694604 B   ---   --   ---xx   flac  0.4705  tyler2019-03-07d01t04.flac
     4:15.44       45085532 B   ---   --   ---xx   flac  0.5178  tyler2019-03-07d01t05.flac
     6:18.09       66700412 B   ---   --   ---xx   flac  0.5007  tyler2019-03-07d01t06.flac
     4:52.58       51645260 B   ---   --   ---xx   flac  0.5124  tyler2019-03-07d01t07.flac
     5:59.44       63431132 B   ---   --   ---xx   flac  0.5049  tyler2019-03-07d01t08.flac
     5:58.28       63217100 B   ---   --   ---xx   flac  0.5011  tyler2019-03-07d01t09.flac
     7:01.66       74419676 B   ---   --   ---xx   flac  0.5198  tyler2019-03-07d01t10.flac
     9:37.11      101808716 B   ---   --   ---xx   flac  0.5003  tyler2019-03-07d01t11.flac
     1:12.46       12809036 B   ---   --   ---xx   flac  0.3896  tyler2019-03-07d01t12.flac
     4:51.61       51475916 B   ---   --   ---xx   flac  0.3960  tyler2019-03-07d02t01.flac
     5:40.35       60058364 B   ---   --   ---xx   flac  0.5040  tyler2019-03-07d02t02.flac
    11:26.03      121017500 B   ---   --   ---xx   flac  0.4474  tyler2019-03-07d02t03.flac
     9:10.70       97184684 B   ---   --   ---xx   flac  0.4967  tyler2019-03-07d02t04.flac
     2:13.11       23487116 B   ---   --   ---xx   flac  0.5209  tyler2019-03-07d02t05.flac
     6:29.05       68631404 B   ---   --   ---xx   flac  0.5646  tyler2019-03-07d02t06.flac
     7:18.37       77350268 B   ---   --   ---xx   flac  0.4357  tyler2019-03-07d02t07.flac
     5:53.04       62278652 B   ---   --   ---xx   flac  0.5026  tyler2019-03-07d02t08.flac
    11:29.38      121629020 B   ---   --   ---xx   flac  0.4349  tyler2019-03-07d02t09.flac
     1:23.23       14695340 B   ---   --   ---xx   flac  0.2895  tyler2019-03-07d02t10.flac
     6:38.47       70317788 B   ---   --   ---xx   flac  0.5247  tyler2019-03-07d02t11.flac
   141:14.07     1494831076 B                            0.4856  (23 files)






More information about the bittorrent mailing list