[bittorrent] gd1988-04-30.145595.fob.nak700.anon.noel.t-flac16

Automated Mailer noreply-bt.e at etree.org
Fri Mar 8 19:57:58 UTC 2019


Band:           Grateful Dead
Torrent Name:   gd1988-04-30.145595.fob.nak700.anon.noel.t-flac16
Uploaded by:    norm
DB Link:        
Details:        http://bt.etree.org/details.php?id=604647

Contact the seeder at http://db.etree.org/norm

If the link to this show does not work, it was probably removed for
being non-trade-friendly.

Description / text file:
-------------------------
141810 24 > 16 - same HASH served @ Lossless Legs

Grateful Dead

April 30, 1988
Frost Amphitheater, 
Stanford University, 
Palo Alto, CA
Sets I & II

In Celebration of the Pearl Anniversary

Lineage: Nakamichi 700 cardioids front of board -> tcd5m (master) -> Korg mr1000 (1 bit, 5.6 Mhz) -> render in AudioGate to 24 bits 48 khz sampling.

This file set is 16 bit @ 44.1

Patch info:
- shnid 118630 (Superscope EC-7's) supplies,
- s2t06; 07:02 - end
- s2t07; start - 00:08
- shnid 7727 (Uher 240 deck) supplies,
- s2t14; 05:34 - end
- s2t15; all

Notes:
- Enjoy!
- Grateful for Jeff Bowen & Danny T.'s sources that supply the patches.
* first performance
- Pocky Way is a drummers choice
- tape flip (s1) cross faded
- isolated wind in recording

Mastered by Joe Noel
Flac > Audacity > Flac
April 26, 2018

- Set I -
s1t01 - crowd - tuning
s1t02 - Let the Good Times Roll -> *
s1t03 - Feel Like a Stranger
s1t04 - Row Jimmy
s1t05 - Walkin' Blues
s1t06 - tuning
s1t07 - Hey Pocky Way
s1t08 - Ramble on Rose
s1t09 - Let It Grow

- Set II -
s2t01 - crowd - tuning
s2t02 - Shakedown Street ->
s2t03 - Man Smart (Women are Smarter) ->
s2t04 - Ship of Fools ->
s2t05 - Playing in the Band ->
s2t06 - Drums ->
s2t07 - Space ->
s2t08 - Goin' Down the Road Feelin' Bad ->
s2t09 - All Along the Watchtower ->
s2t10 - Black Peter ->
s2t11 - Sugar Magnolia
s2t12 - encore break
s2t13 - China Cat Sunflower ->
s2t14 - I Know You Rider ->
s2t15 - One More Saturday Night

Tagging notes:
Show information is embedded within the header of each flac file. 
It will display on any player capable of directly playing flac files. 
If converted to wav during processing, all tags will be stripped, 
however audio data will remain unaffected. If you must 
transcode to a lossy format, do so directly Flac > Lossy.
Use ffp or st5 to validate audio integrity.
Md5 values will change if tagging is altered.
[J. Noel 26 April 2018]

    length     expanded size    cdr  WAVE problems  fmt   ratio  filename
     3:03.62       32427068 B   ---   --   ---xx   flac  0.4211  gd88-04-30.s1t01.flac
     3:49.23       40449740 B   ---   --   ---xx   flac  0.5875  gd88-04-30.s1t02.flac
     7:31.26       79617596 B   ---   --   ---xx   flac  0.6409  gd88-04-30.s1t03.flac
     7:40.71       81311036 B   ---   --   ---xx   flac  0.6285  gd88-04-30.s1t04.flac
     6:00.45       63609884 B   ---   --   ---xx   flac  0.6629  gd88-04-30.s1t05.flac
     2:36.31       27591356 B   ---   --   ---xx   flac  0.3940  gd88-04-30.s1t06.flac
     8:05.09       85575212 B   ---   --   ---xx   flac  0.6266  gd88-04-30.s1t07.flac
     7:04.69       74955932 B   ---   --   ---xx   flac  0.6328  gd88-04-30.s1t08.flac
    11:53.48      125886140 B   ---   --   ---xx   flac  0.6807  gd88-04-30.s1t09.flac
     1:06.33       11720060 B   ---   --   ---xx   flac  0.4820  gd88-04-30.s2t01.flac
    12:49.35      135733964 B   ---   --   ---xx   flac  0.6464  gd88-04-30.s2t02.flac
     7:30.49       79495292 B   ---   --   ---xx   flac  0.6560  gd88-04-30.s2t03.flac
     7:32.04       79742252 B   ---   --   ---xx   flac  0.6092  gd88-04-30.s2t04.flac
     8:54.30       94268204 B   ---   --   ---xx   flac  0.6395  gd88-04-30.s2t05.flac
     7:17.25       77145644 B   ---   --   ---xx   flac  0.5544  gd88-04-30.s2t06.flac
     8:05.71       85721036 B   ---   --   ---xx   flac  0.4796  gd88-04-30.s2t07.flac
     6:18.05       66691004 B   ---   --   ---xx   flac  0.6127  gd88-04-30.s2t08.flac
     4:40.04       49401452 B   ---   --   ---xx   flac  0.6624  gd88-04-30.s2t09.flac
     8:33.29       90561452 B   ---   --   ---xx   flac  0.5827  gd88-04-30.s2t10.flac
     8:09.36       86344316 B   ---   --   ---xx   flac  0.6592  gd88-04-30.s2t11.flac
     1:12.49       12816092 B   ---   --   ---xx   flac  0.4490  gd88-04-30.s2t12.flac
     4:28.13       47305820 B   ---   --   ---xx   flac  0.6294  gd88-04-30.s2t13.flac
     5:39.62       59945468 B   ---   --   ---xx   flac  0.6468  gd88-04-30.s2t14.flac
     4:53.11       51711116 B   ---   --   ---xx   flac  0.5339  gd88-04-30.s2t15.flac
   154:57.15     1640027136 B                            0.6115  (24 files)



More information about the bittorrent mailing list