[bittorrent] Barnyard Garden Band Darwin's Burgers And Blues Sandy Springs, Georgia 3/6/2019 (Schoeps MK4V'S FOB)

Automated Mailer noreply-bt.e at etree.org
Thu Mar 7 14:39:36 UTC 2019


Band:           Other
Torrent Name:   Barnyard Garden Band Darwin's Burgers And Blues Sandy Springs, Georgia 3/6/2019 (Schoeps MK4V'S FOB)
Uploaded by:    zmanatl
DB Link:        
Details:        http://bt.etree.org/details.php?id=604598

Contact the seeder at http://db.etree.org/zmanatl

If the link to this show does not work, it was probably removed for
being non-trade-friendly.

Description / text file:
-------------------------
Barnyard Garden Band
Darwin's Burgers And Blues
Sandy Springs, Georgia
3/6/2019 

Source: Schoeps MK4V'S>CMC6>Lunatec V2>Sound Devices 722 (24/44.1)
FOB/DFC/KFC/ZFC/AARP 12' From Stage, 6 1/2' High
DSP: Sound Devices 722>Sound Forge 10.0>CD Wave>flac(16)
ID3 Tagged In Foobar 2000
Recorded By: Z-Man
Seeded By: Z-Man 

Disc I 1st Set

01 *Good Ol' Mountain Dew
02 Mardi Gras Mambo
03 ?
04 Paradise
05 Banter/Jokes
06 How Blue Can You Get
07 Superstition
08 Knockin' On Heaven's Door

Disc II 2nd Set

01 #Black Muddy River 
02 River Takes The Town
03 House Of The Risin' Sun
04 Tennessee Jed
05 My Magdalene
06 Corn Bread And Butter Beans
07 Something About olivia
08 HalleluJah

* These Guys Started Earlier Than Scheduled. Hit Record During This Song.
# Alex And JD Duet

Alex Barnard - Electric Guitar, Acoustic Guitar, And Vocals
JD Hopkins - Electric Guitar, Viola, And Vocals
John Mark "Cousin" Burton - Bass And Vocals
Brad - Mandolin And Vocals
Russell Ingram - Drums

barnyard2019-03-06d01t01.flac:1deb0c55c18faff954c1d0dffece4070
barnyard2019-03-06d01t02.flac:bb1238480cc632c8a0c5dd854bc3394e
barnyard2019-03-06d01t03.flac:443223d7244dd98e52a7b4bea9f9ea3a
barnyard2019-03-06d01t04.flac:178f9a76834b6d87a1ffcf57408e3c61
barnyard2019-03-06d01t05.flac:bb1f55d9edf79341e26bb50896197418
barnyard2019-03-06d01t06.flac:7a1362e483d1d129dd678e8ea1b379df
barnyard2019-03-06d01t07.flac:87a396a126e299b26891314c791f2a72
barnyard2019-03-06d01t08.flac:0850e4301f8088ca0f6dee2a2f131e7b
barnyard2019-03-06d02t01.flac:7677e5e72c0691f4ff7932ca20272b12
barnyard2019-03-06d02t02.flac:a55c6ded8e71ac47ca431a7abb77ca72
barnyard2019-03-06d02t03.flac:a516dbcd09d09894ac9e3e13d272b787
barnyard2019-03-06d02t04.flac:49b3a9d8ccb49b87e27e0556f0e206b6
barnyard2019-03-06d02t05.flac:da82bf27f8277590091b8055bc8b7ec0
barnyard2019-03-06d02t06.flac:3b43e739e391ddbb31786e98ab6f3ce8
barnyard2019-03-06d02t07.flac:d7ffdc49107f3930182f2ee6d9e907a2
barnyard2019-03-06d02t08.flac:3af8f08f128c887a773745e9af809958

length     expanded size    cdr  WAVE problems  fmt   ratio  filename
     1:43.73       18340940 B   ---   --   ---xx   flac  0.1822  barnyard2019-03-06d01t01.flac
     3:54.29       41345852 B   ---   --   ---xx   flac  0.2591  barnyard2019-03-06d01t02.flac
     6:54.20       73076684 B   ---   --   ---xx   flac  0.2557  barnyard2019-03-06d01t03.flac
     5:24.22       57205388 B   ---   --   ---xx   flac  0.2553  barnyard2019-03-06d01t04.flac
     4:40.38       49481420 B   ---   --   ---xx   flac  0.2553  barnyard2019-03-06d01t05.flac
     1:15.02       13234748 B   ---   --   ---xx   flac  0.1729  barnyard2019-03-06d01t06.flac
     5:47.26       61271996 B   ---   --   ---xx   flac  0.2727  barnyard2019-03-06d01t07.flac
     5:58.70       63315884 B   ---   --   ---xx   flac  0.2420  barnyard2019-03-06d01t08.flac
     6:23.59       67700012 B   ---   --   ---xx   flac  0.4081  barnyard2019-03-06d02t01.flac
     6:52.20       72723884 B   ---   --   ---xx   flac  0.4447  barnyard2019-03-06d02t02.flac
     6:00.06       63518156 B   ---   --   ---xx   flac  0.5390  barnyard2019-03-06d02t03.flac
     5:08.43       54432380 B   ---   --   ---xx   flac  0.5100  barnyard2019-03-06d02t04.flac
     4:37.58       48999260 B   ---   --   ---xx   flac  0.4952  barnyard2019-03-06d02t05.flac
     3:37.05       38290604 B   ---   --   ---xx   flac  0.4768  barnyard2019-03-06d02t06.flac
     4:57.63       52539020 B   ---   --   ---xx   flac  0.5455  barnyard2019-03-06d02t07.flac
     6:12.10       65644364 B   ---   --   ---xx   flac  0.4572  barnyard2019-03-06d02t08.flac
    79:28.19      841120592 B                            0.3774  (16 files)






More information about the bittorrent mailing list