[bittorrent] gd69_04_21 (88465) 22 (88466) 23 (98968) The Arks

Automated Mailer noreply-bt.e at etree.org
Thu Mar 7 13:30:46 UTC 2019


Band:           Grateful Dead
Torrent Name:   gd69_04_21 (88465) 22 (88466) 23 (98968) The Arks
Uploaded by:    other3
DB Link:        
Details:        http://bt.etree.org/details.php?id=604596

Contact the seeder at http://db.etree.org/other3

If the link to this show does not work, it was probably removed for
being non-trade-friendly.

Description / text file:
-------------------------
Grateful Dead - April 21, 1969
The Ark - Boston, MA

Recording Info:
SBD -> Master Reel -> Dat -> CD

Transfer Info:
CD -> Samplitude Professional v9.12 -> FLAC
(3 Discs Audio / 2 Discs FLAC)

All Transfers and Mastering By Charlie Miller
charliemiller87 at earthlink.net
November 13, 2007

Patch Info:
Alternate SBD source provides:
Introduction (complete track)
2nd Cryptical Envelopment (1:21 - 6:19)
Dark Star (14:52 - 16:36)
Turn On Your Lovelight (23:56 - end of track)

Notes:
-- Cleaned up numerous flaws and fixed the levels
-- Alligator has a false start
-- Tape runs out during Feedback

Set 1:
d1t01 - Introduction
d1t02 - Hard To Handle
d1t03 - Morning Dew
d1t04 - Cryptical Envelopment ->
d1t05 - Drums ->
d1t06 - The Other One ->
d1t07 - Cryptical Envelopment ->
d1t08 - Sittin' On Top Of The World
d1t09 - Alligator ->
d1t10 - Drums ->
d1t11 - Jam ->
d1t12 - Doin' That Rag

Set 2:
d2t01 - Foxy Lady Jam
d2t02 - Dark Star ->
d2t03 - St. Stephen ->
d2t04 - The Eleven ->
d2t05 - Turn On Your Lovelight

Encore:
d3t01 - Tuning
d3t02 - Viola Lee Blues ->
d3t03 - Feedback


SHNTOOL OUTPUT:
    length     expanded size   cdr  WAVE problems filename
     1:29.29       15767852    ---   --   -----   gd69-04-21d1t01.wav
     5:26.09       57527612    ---   --   -----   gd69-04-21d1t02.wav
     9:25.10       99689564    ---   --   -----   gd69-04-21d1t03.wav
     1:57.45       20744684    ---   --   -----   gd69-04-21d1t04.wav
     0:39.36        6964316    ---   --   -----   gd69-04-21d1t05.wav
     9:10.45       97125884    ---   --   -----   gd69-04-21d1t06.wav
     7:54.11       83639516    ---   --   -----   gd69-04-21d1t07.wav
     3:27.14       36547772    ---   --   -----   gd69-04-21d1t08.wav
     4:06.73       43566140    ---   --   -----   gd69-04-21d1t09.wav
     3:26.44       36441932    ---   --   -----   gd69-04-21d1t10.wav
     7:46.10       82225964    ---   --   -----   gd69-04-21d1t11.wav
     7:03.24       74673692    ---   --   -----   gd69-04-21d1t12.wav
     3:25.26       36223196    ---   --   -----   gd69-04-21d2t01.wav
    22:41.04      240089852    ---   --   -----   gd69-04-21d2t02.wav
     6:51.56       72632156    ---   --   -----   gd69-04-21d2t03.wav
    10:59.17      116287628    ---   --   -----   gd69-04-21d2t04.wav
    25:24.55      268963004    ---   --   -----   gd69-04-21d2t05.wav
     2:27.02       25935548    ---   --   -----   gd69-04-21d3t01.wav
    13:47.59      146021612    ---   --   -----   gd69-04-21d3t02.wav
     5:39.05       59811404    ---   --   -----   gd69-04-21d3t03.wav
   153:08.49     1620879328 B                     (totals for 20 files)

Grateful Dead - April 22, 1969
The Ark - Boston, MA

Recording Info:
SBD -> Master Cassette -> Reel -> Dat -> CD

Transfer Info:
CD -> Samplitude Professional v9.12 -> FLAC
(2 Discs Audio / 2 Discs FLAC)

All Transfers and Mastering By Charlie Miller
charliemiller87 at earthlink.net
November 13, 2007

Notes:
-- Disc change is seamless
-- First few notes of Sittin' On Top Of The World missing
-- Tape flips during The Other One and Dark Star
-- Lovelight contains a Caution Jam

Set 1:
d1t01 - Sittin' On Top Of The World
d1t02 - Morning Dew
d1t03 - Beat It On Down The Line ->
d1t04 - Good Morning Little Schoolgirl
d1t05 - Doin' That Rag
d1t06 - Cryptical Envelopment ->
d1t07 - Drums ->
d1t08 - The Other One ->
d1t09 - Cryptical Envelopment ->
d1t10 - Death Don't Have No Mercy

Set 2:
d1t11 - Monitor Levels
d1t12 - Dupree's Diamond Blues ->
d1t13 - Mountains Of The Moon ->
d2t01 - Jam ->
d2t02 - Dark Star ->
d2t03 - St. Stephen ->
d2t04 - The Eleven ->
d2t05 - Turn On Your Lovelight


SHNTOOL OUTPUT:
    length     expanded size   cdr  WAVE problems filename
     3:56.12       41658668    ---   --   -----   gd69-04-22d1t01.wav
    10:33.05      111673004    ---   --   -----   gd69-04-22d1t02.wav
     2:43.63       28901420    ---   --   -----   gd69-04-22d1t03.wav
     9:56.33      105212060    ---   --   -----   gd69-04-22d1t04.wav
     8:31.01       90142796    ---   --   -----   gd69-04-22d1t05.wav
     1:55.36       20370716    ---   --   -----   gd69-04-22d1t06.wav
     0:42.73        7580540    ---   --   -----   gd69-04-22d1t07.wav
     1:59.00       20991644    ---   --   -----   gd69-04-22d1t08.wav
     9:01.28       95498300    ---   --   -----   gd69-04-22d1t09.wav
    10:20.45      109473884    ---   --   -----   gd69-04-22d1t10.wav
     3:02.26       32165996    ---   --   -----   gd69-04-22d1t11.wav
     4:13.13       44659820    ---   --   -----   gd69-04-22d1t12.wav
     4:20.18       45906380    ---   --   -----   gd69-04-22d1t13.wav
     2:48.11       29661116    ---   --   -----   gd69-04-22d2t01.wav
    27:21.36      289557116    ---   --   -----   gd69-04-22d2t02.wav
     6:35.09       69699212    ---   --   -----   gd69-04-22d2t03.wav
    11:19.31      119848556    ---   --   -----   gd69-04-22d2t04.wav
    28:49.01      304997996    ---   --   -----   gd69-04-22d2t05.wav
   148:08.66     1567999224 B                     (totals for 18 files)

Grateful Dead - April 23, 1969
The Ark - Boston, MA

Recording Info:
SBD -> Master Reel -> Cassette -> Dat -> CD

Transfer Info:
CD -> Samplitude Professional v9.12 -> FLAC
(3 Discs Audio / 2 Discs FLAC)

All Transfers and Mastering By Charlie Miller
charliemiller87 at earthlink.net
May 11, 2009

Patch Info:
SBD -> Master Cassette -> Cassette -> FLAC (shnid=98793) supplies:
Dark Star (20:09 - end of track)
St. Stephen (0:00 - 0:22) (1:37 - end of track)
It's A Sin (0:00 - 1:44)

Notes:
-- All disc changes are seamless
-- Patched flawed portions of Dark Star and St. Stephen
-- Tape flip during The Eleven
-- Tape flip between Caution and Feedback
-- Thanks to Joe B. Jones for his help pitch correcting the patch source
Set 1:
d1t01 - Introduction
d1t02 - He Was A Friend Of Mine
d1t03 - Dark Star ->
d1t04 - St. Stephen ->
d1t05 - It's A Sin ->
d1t06 - St. Stephen ->
d1t07 - Cryptical Envelopment ->
d1t08 - Drums ->
d1t09 - The Other One ->
d1t10 - Cryptical Envelopment ->
d1t11 - Sittin' On Top Of The World ->
d2t01 - Turn On Your Lovelight

Set 2:
d2t02 - Morning Dew
d2t03 - Hard To Handle
d2t04 - Doin' That Rag
d3t01 - Alligator ->
d3t02 - Drums ->
d3t03 - Jam ->
d3t04 - The Eleven ->
d3t05 - Caution (Do Not Stop On Tracks) ->
d3t06 - Feedback ->
d3t07 - And We Bid You Good Night

Encore:
d3t08 - Not Fade Away tease
d3t09 - It's All Over Now, Baby Blue


SHNTOOL OUTPUT:
    length     expanded size   cdr  WAVE problems filename
     0:38.74        6877292    ---   --   -----   gd69-04-23d1t01.wav
    11:33.68      122405180    ---   --   -----   gd69-04-23d1t02.wav
    20:55.62      221527868    ---   --   -----   gd69-04-23d1t03.wav
     2:39.26       28108796    ---   --   -----   gd69-04-23d1t04.wav
     3:50.73       40743740    ---   --   -----   gd69-04-23d1t05.wav
     2:12.59       23423612    ---   --   -----   gd69-04-23d1t06.wav
     1:57.25       20697644    ---   --   -----   gd69-04-23d1t07.wav
     0:44.66        7916876    ---   --   -----   gd69-04-23d1t08.wav
     8:38.66       91530476    ---   --   -----   gd69-04-23d1t09.wav
     6:23.20       67608284    ---   --   -----   gd69-04-23d1t10.wav
     2:58.35       31481564    ---   --   -----   gd69-04-23d1t11.wav
    18:27.31      195347756    ---   --   -----   gd69-04-23d2t01.wav
    10:12.38      108046220    ---   --   -----   gd69-04-23d2t02.wav
     6:18.07       66695708    ---   --   -----   gd69-04-23d2t03.wav
     7:18.49       77378492    ---   --   -----   gd69-04-23d2t04.wav
     3:49.64       40546172    ---   --   -----   gd69-04-23d3t01.wav
     4:53.24       51741692    ---   --   -----   gd69-04-23d3t02.wav
     3:17.43       34851980    ---   --   -----   gd69-04-23d3t03.wav
    17:18.65      183256124    ---   --   -----   gd69-04-23d3t04.wav
    12:49.65      135804524    ---   --   -----   gd69-04-23d3t05.wav
     2:50.00       29988044    ---   --   -----   gd69-04-23d3t06.wav
     6:47.70       71959484    ---   --   -----   gd69-04-23d3t07.wav
     1:33.64       16555772    ---   --   -----   gd69-04-23d3t08.wav
     8:51.54       93795452    ---   --   -----   gd69-04-23d3t09.wav
   167:04.23     1768288752 B                     (totals for 24 files)




More information about the bittorrent mailing list