[bittorrent] Tray Dahl And The Jugtime Ragband From The Earth Brewing Company Roswell, Georgia 3/5/2019 (Schoeps MK4V'S FOB)

Automated Mailer noreply-bt.e at etree.org
Wed Mar 6 05:35:59 UTC 2019


Band:           Other
Torrent Name:   Tray Dahl And The Jugtime Ragband  From The Earth Brewing Company Roswell, Georgia 3/5/2019 (Schoeps MK4V'S FOB)
Uploaded by:    zmanatl
DB Link:        
Details:        http://bt.etree.org/details.php?id=604590

Contact the seeder at http://db.etree.org/zmanatl

If the link to this show does not work, it was probably removed for
being non-trade-friendly.

Description / text file:
-------------------------
Tray Dahl And The Jugtime Ragband
>From The Earth Brewing Company
Roswell, Georgia
3/5/2019 

Source: Schoeps MK4V'S>CMC6>Lunatec V2>Sound Devices 722 (24/44.1)
FOB/DFC/KFC/ZFC/AARP 12' From Stage, 6 1/2' High
DSP: Sound Devices 722>Sound Forge 10.0>CD Wave>flac(16)
ID3 Tagged In Foobar 2000
Recorded By: Z-Man
Seeded By: Z-Man 

Disc I 1st Set

01 Sweet Georgia Brown 
02 I'll Fly Away
03 Yes Sir, That's My Baby
04 It Don't Mean A Thing
05 Wink & Smile
06 Down By The Riverside
07 Minnie The Moocher
08 Ain't She Sweet
09 Whiskey And Wine
10 Poorman's Recourse
11 Gonna Go See Mardi Gras
12 Sing
Soundcheck:
13 What Say You

Disc II 2nd Set

01 When The Saints Go Marchin' In
02 Who Threw The Whiskey In The Well >
03 Drunk >
04 *Eh La Bas 
05 Che La Luna
06 Saint James Infirmary
07 What Say You
08 *I Shall Not Be 
09 ?
10 Stone Mountain Stomp
11 Don't Mess With The Hat
12 Beer Bottle Mama

* With With Gregor "Spirit Curves" On Washtie

Tray Dahl - Tenor Banjo And Vocals
Patrick Stacey - Drums And Vocals
Scott McIntyre - Bass
 - Trumpet
Stephanie Hooks - Vocals

tray2019-03-05d01t01.flac:28c9be9824081c3c608052af61e13d4d
tray2019-03-05d01t02.flac:f42d738b8a0c61947d58e10762c5d482
tray2019-03-05d01t03.flac:1fa864790554fb93cd56e47de8760a37
tray2019-03-05d01t04.flac:490faa398824cfa1ff2dd0e846ddd0a8
tray2019-03-05d01t05.flac:b34d480549cec0fd804cbd15116fc661
tray2019-03-05d01t06.flac:479526038621143ba6418398a57e3b6c
tray2019-03-05d01t07.flac:91a699973d5669fd8faae0cd2a4d7780
tray2019-03-05d01t08.flac:ee36be950a224e2248aca94b3acbd2bb
tray2019-03-05d01t09.flac:d010831443232421a7a651f6a4e2f7bb
tray2019-03-05d01t10.flac:49a04196dc1eb1179a5f783f2cd08dc5
tray2019-03-05d01t11.flac:e270941f2328817fb7be11e6bf915041
tray2019-03-05d01t12.flac:e53638ee3ef26363b7d489af8060b945
tray2019-03-05d01t13.flac:dc1031b9720bd28d57762462eab1f52c
tray2019-03-05d02t01.flac:eecdc674bd569cfde06ca0ee3f59232b
tray2019-03-05d02t02.flac:c36cebeafb6fbec3d23b57bb2a01612f
tray2019-03-05d02t03.flac:00d3cde4b248cedb08131b3c053e4efc
tray2019-03-05d02t04.flac:81e455b88f22d8e6384bffde9da0cd8d
tray2019-03-05d02t05.flac:6f5fa6725f74d760014801b29d06de1f
tray2019-03-05d02t06.flac:111f98c5192ae64ed9c945c09927a0e4
tray2019-03-05d02t07.flac:971e0fd15fa71892f9888739d156b4bd
tray2019-03-05d02t08.flac:3884dcf8237fb25ee256c0bd31288098
tray2019-03-05d02t09.flac:fbfd03699f5a86eb9d1e678b4145628f
tray2019-03-05d02t10.flac:93cbc9a02a65491d007a754df21c0d1d
tray2019-03-05d02t11.flac:c807497e041942da142e214b5d2b1e69
tray2019-03-05d02t12.flac:e174d0372af6106df146863c36f10944

length     expanded size    cdr  WAVE problems  fmt   ratio  filename
     4:05.38       43307420 B   ---   --   ---xx   flac  0.5372  tray2019-03-05d01t01.flac
     4:33.53       48281900 B   ---   --   ---xx   flac  0.5155  tray2019-03-05d01t02.flac
     4:46.54       50577452 B   ---   --   ---xx   flac  0.5435  tray2019-03-05d01t03.flac
     3:21.70       35621084 B   ---   --   ---xx   flac  0.5558  tray2019-03-05d01t04.flac
     3:15.36       34482716 B   ---   --   ---xx   flac  0.5304  tray2019-03-05d01t05.flac
     3:44.54       39640652 B   ---   --   ---xx   flac  0.5384  tray2019-03-05d01t06.flac
     5:16.14       55775372 B   ---   --   ---xx   flac  0.4931  tray2019-03-05d01t07.flac
     3:36.09       38123612 B   ---   --   ---xx   flac  0.5256  tray2019-03-05d01t08.flac
     5:31.13       58419020 B   ---   --   ---xx   flac  0.4683  tray2019-03-05d01t09.flac
     5:26.41       57602876 B   ---   --   ---xx   flac  0.5080  tray2019-03-05d01t10.flac
     4:02.04       42698252 B   ---   --   ---xx   flac  0.5405  tray2019-03-05d01t11.flac
     4:13.00       44629244 B   ---   --   ---xx   flac  0.5188  tray2019-03-05d01t12.flac
     3:40.08       38826860 B   ---   --   ---xx   flac  0.5320  tray2019-03-05d01t13.flac
     4:26.66       47077676 B   ---   --   ---xx   flac  0.5287  tray2019-03-05d02t01.flac
     2:57.51       31342796 B   ---   --   ---xx   flac  0.5663  tray2019-03-05d02t02.flac
     3:03.32       32356508 B   ---   --   ---xx   flac  0.5657  tray2019-03-05d02t03.flac
     4:58.14       52600172 B   ---   --   ---xx   flac  0.5141  tray2019-03-05d02t04.flac
     3:52.04       40934252 B   ---   --   ---xx   flac  0.4925  tray2019-03-05d02t05.flac
     6:18.59       66818012 B   ---   --   ---xx   flac  0.4584  tray2019-03-05d02t06.flac
     3:57.23       41860940 B   ---   --   ---xx   flac  0.4945  tray2019-03-05d02t07.flac
     5:15.64       55716572 B   ---   --   ---xx   flac  0.4906  tray2019-03-05d02t08.flac
     4:55.13       52068620 B   ---   --   ---xx   flac  0.5205  tray2019-03-05d02t09.flac
     4:31.09       47825612 B   ---   --   ---xx   flac  0.5160  tray2019-03-05d02t10.flac
     5:35.02       59098748 B   ---   --   ---xx   flac  0.5328  tray2019-03-05d02t11.flac
     4:15.43       45083180 B   ---   --   ---xx   flac  0.5293  tray2019-03-05d02t12.flac
   109:40.24     1160769548 B                            0.5170  (25 files)








More information about the bittorrent mailing list