[bittorrent] Joe Russo's Almost Dead State Theater ~ Portland ME ~ March 3rd, 2019 ~DPA 4011A's + Nakamichi CM-300/CP-4's > Sound Devices MixPre-6 @ 24bit/48khz

Automated Mailer noreply-bt.e at etree.org
Tue Mar 5 09:52:25 UTC 2019


Band:           Joe Russo's Almost Dead
Torrent Name:   Joe Russo's Almost Dead State Theater ~ Portland ME ~ March 3rd, 2019 ~DPA 4011A's + Nakamichi CM-300/CP-4's > Sound Devices MixPre-6 @ 24bit/48khz
Uploaded by:    Tim Leavy
DB Link:        
Details:        http://bt.etree.org/details.php?id=604586

Contact the seeder at http://db.etree.org/Tim Leavy

If the link to this show does not work, it was probably removed for
being non-trade-friendly.

Description / text file:
-------------------------
Joe Russo's Almost Dead
State Theater ~ Portland ME
March 3rd, 2019

Recording Info:
DPA 4011A's + Nakamichi CM-300/CP-4's > Sound Devices MixPre-6 @ 24bit/48khz wav > Adobe Audition > TLH > FLAC 24

Notes:
-- Mic stand raised to approximately 10'
-- Positioned just to the left middle side of the sound booth.


Recorded and Mastered by Tim Leavy
lazylightningmedia at gmail.com
November 22nd, 2018


Set 1:

01 - Tuning
02 - Don't Ease Me In
03 - Alligator
04 - Viola Lee Blues
05 - I Need A Miracle
06 - Dire Wolf
07 - King Solomon's Marbles


Set 2:

08 - Tuning
09 - Crazy Fingers
10 - Jack Straw
11 - Greatest Story Ever Told
12 - Cosmic Charlie
13 - Cats Under The Stars
14 - Slipknot!
15 - Franklin's Tower
16 - Encore Break


Encore:

17 - Yazoo Street Scandal
18 - Samson And Delilah



SHNTOOL Output:
    length     expanded size    cdr  WAVE problems  fmt   ratio  filename
     0:43.000      12384020 B   cxx   --   -----    wav  1.0000  01 - Tuning.wav
     4:21.978      75449630 B   cxx   --   -----    wav  1.0000  02 - Don't Ease Me In.wav
    17:49.774     308095094 B   cxx   --   -----    wav  1.0000  03 - Alligator.wav
    12:38.541     218459966 B   cxx   --   -----    wav  1.0000  04 - Viola Lee Blues.wav
    11:13.885     194079050 B   cxx   --   -----    wav  1.0000  05 - I Need A Miracle.wav
     4:27.471      77031596 B   cxx   --   -----    wav  1.0000  06 - Dire Wolf.wav
     9:31.219     164511092 B   cxx   --   -----    wav  1.0000  07 - King Solomon's Marbles.wav
     1:35.565      27522710 B   cxx   --   -----    wav  1.0000  08 - Tuning.wav
    15:40.967     270998438 B   cxx   --   -----    wav  1.0000  09 - Crazy Fingers.wav
    14:54.785     257698004 B   cxx   --   -----    wav  1.0000  10 - Jack Straw.wav
    12:09.527     210103934 B   cxx   --   -----    wav  1.0000  11 - Greatest Story Ever Told.wav
    11:49.252     204264698 B   cxx   --   -----    wav  1.0000  12 - Cosmic Charlie.wav
    13:25.156     231884840 B   cxx   --   -----    wav  1.0000  13 - Cats Under The Stars.wav
     7:17.726     126065216 B   cxx   --   -----    wav  1.0000  13 - Slipknot!.wav
    11:31.566     199171052 B   cxx   --   -----    wav  1.0000  15 - Franklin's Tower.wav
     1:35.339      27457724 B   cxx   --   -----    wav  1.0000  16 - Encore Break.wav
     7:38.031     131913014 B   cxx   --   -----    wav  1.0000  17 - Yazoo Street Scandal.wav
     5:44.606      99246704 B   cxx   --   -----    wav  1.0000  18 - Samson And Delilah.wav
   164:08.389    2836336782 B                            1.0000  (18 files)




More information about the bittorrent mailing list