[bittorrent] Barry Richman Trio Dixie Tavern Marietta, Georgia 3/4/2019 (Schoeps MK4V'S FOB)

Automated Mailer noreply-bt.e at etree.org
Tue Mar 5 04:02:05 UTC 2019


Band:           Other
Torrent Name:   Barry Richman Trio Dixie Tavern Marietta, Georgia 3/4/2019 (Schoeps MK4V'S FOB)
Uploaded by:    zmanatl
DB Link:        
Details:        http://bt.etree.org/details.php?id=604585

Contact the seeder at http://db.etree.org/zmanatl

If the link to this show does not work, it was probably removed for
being non-trade-friendly.

Description / text file:
-------------------------
Barry Richman Trio
Dixie Tavern
Marietta, Georgia
3/4/2019 

Source: Schoeps MK4V'S>CMC6>Lunatec V2>Sound Devices 722 (24/44.1)
FOB/DFC/KFC/ZFC/AARP 12' From Stage, 6 1/2' High
DSP: Sound Devices 722>Sound Forge 10.0>CD Wave>flac(16)
ID3 Tagged In Foobar 2000
Recorded By: Z-Man
Seeded By: Z-Man 

Disc I 

01 Greeting By Renard
02 Further On Up The Road
03 ?
04 Hold Everything
05 Sarah Smiles
06 Them Changes
07 Band Introductions
08 Wilbur

Barry Richman - Guitar
Reynard Clark - Bass And Vocals
Bill Diehl - Drums

Dedicating my recording to the passing of a friend, Scott Spencer out in Telluride, Colorado. I only met him
2 years ago through my Good Friend David "Cousin Eddie" Dyche. We met and went to a Dead And Company show
in North Carolina. He loved Music, in particular Bluegrass Music. He was a fixture every year at the Telluride 
Bluegrass Festival. He loved the outdoors and was an aid skier. He left us way too soon. It was a real 
pleasure to meet and know you Scott. Rest In Peace Brother......

barry2019-03-04d01t01.flac:bb9e1ce089c0fbefa277c563a27d9cd8
barry2019-03-04d01t02.flac:f40f488b23fbcbe6384fd6f72a8a77c1
barry2019-03-04d01t03.flac:9154874b46e438c5cc0c0f6ada65f4e5
barry2019-03-04d01t04.flac:8cf706449cc4bffdd524d9bd6507449c
barry2019-03-04d01t05.flac:c698cf4084ae05220080ebf7a7acd367
barry2019-03-04d01t06.flac:b12e24efc016536472bc1673ca2c7438
barry2019-03-04d01t07.flac:5a7972c87838ea50543883fd8ebb4dcf
barry2019-03-04d01t08.flac:0babadea6ed9fec992dde32d7663e7f5

length     expanded size    cdr  WAVE problems  fmt   ratio  filename
     1:31.36       16137116 B   ---   --   ---xx   flac  0.1697  barry2019-03-04d01t01.flac
     5:15.66       55721276 B   ---   --   ---xx   flac  0.2533  barry2019-03-04d01t02.flac
     6:01.52       63802748 B   ---   --   ---xx   flac  0.2382  barry2019-03-04d01t03.flac
     3:47.25       40101644 B   ---   --   ---xx   flac  0.2369  barry2019-03-04d01t04.flac
     4:29.28       47517500 B   ---   --   ---xx   flac  0.2467  barry2019-03-04d01t05.flac
     4:36.35       48768764 B   ---   --   ---xx   flac  0.2972  barry2019-03-04d01t06.flac
     1:42.41       18089276 B   ---   --   ---xx   flac  0.1941  barry2019-03-04d01t07.flac
     9:44.57      103151708 B   ---   --   ---xx   flac  0.2407  barry2019-03-04d01t08.flac
    37:09.40      393290032 B                            0.2444  (8 files)





More information about the bittorrent mailing list