[bittorrent] The Black Lillies Eddie's Attic Decatur, Georgia 3/3/2019 (Schoeps MK4V'S FOB)

Automated Mailer noreply-bt.e at etree.org
Mon Mar 4 18:32:49 UTC 2019


Band:           Other
Torrent Name:   The Black Lillies Eddie's Attic Decatur, Georgia 3/3/2019 (Schoeps MK4V'S FOB)
Uploaded by:    zmanatl
DB Link:        
Details:        http://bt.etree.org/details.php?id=604576

Contact the seeder at http://db.etree.org/zmanatl

If the link to this show does not work, it was probably removed for
being non-trade-friendly.

Description / text file:
-------------------------
The Black Lillies
Eddie's Attic
Decatur, Georgia
3/3/2019 

Source: Schoeps MK4V'S>CMC6>Lunatec V2>Sound Devices 722 (24/44.1)
FOB/DFC/KFC/ZFC/AARP 8' From Stage, 8' High
DSP: Sound Devices 722>Sound Forge 10.0>CD Wave>flac(16)
ID3 Tagged In Foobar 2000
Recorded By: Z-Man
Seeded By: Z-Man 

Disc I 

01 Announcement/Introduction 
02 Don't Be Afraid 
03 Instrumental >
04 Two Hearts Down 
05 Weighting 
06 Catherine
07 Peach Pickin'
08 Out Of The Blue
09 Joy And Misery
10 Snakes And Telephones
11 And The River Rolls On

Disc II 

01 Third Place
02 *?
03 Banter
04 *Earthquake
05 Whiskey Angel
06 Ice Museum
07 Banter
08 So Hard To Please
09 Desire
10 Band Introductions
11 Broken Shore

* No Drums Or Bass

Cruz Contreras - Guitar And Vocals
Dustin Schaefer - Guitar And Vocals
Sam Quinn - Bass And Vocals
Bowman Townsend - Drums

theblack2019-03-03d01t01.flac:9216afa6c3848a4d94829b8dabc1127d
theblack2019-03-03d01t02.flac:38ee85f9f69f909ebe4157acebfb43cf
theblack2019-03-03d01t03.flac:76ada4dfe01efb2956306ecc13ae5108
theblack2019-03-03d01t04.flac:d591f678f51c69142df682be2b8fbce4
theblack2019-03-03d01t05.flac:2bda77fec0ec2a8c9302d3548fb86214
theblack2019-03-03d01t06.flac:4a50e0ecc057dacbf8a44c4be8f53622
theblack2019-03-03d01t07.flac:427fd9466872fcfc4a1148a62a970f5f
theblack2019-03-03d01t08.flac:f7f4fd63a3818988bf30c22eb8902104
theblack2019-03-03d01t09.flac:4764751450fb6914c8f02a2e2413b7e4
theblack2019-03-03d01t10.flac:c62d23df0bd286a68d12e87a37fbe4f8
theblack2019-03-03d01t11.flac:e7077ede2f64ac5d9bd571b3bae6452d
theblack2019-03-03d02t01.flac:63a8f0036a730335664c4d9d699c4e81
theblack2019-03-03d02t02.flac:67fc386751fa00e005f1e34c2c28151b
theblack2019-03-03d02t03.flac:eb37e920f4b138b8668376c88caad8f0
theblack2019-03-03d02t04.flac:cf539527c3e7bf71e09257409995c633
theblack2019-03-03d02t05.flac:1cbcd2a865a3b7af77aa150c3c5dd4eb
theblack2019-03-03d02t06.flac:7688b169b730850d3e113d30e5f05740
theblack2019-03-03d02t07.flac:1051e36284acb58994f61cdf86175a6d
theblack2019-03-03d02t08.flac:ac28f09295b3a0c80b0e884fc938ba3f
theblack2019-03-03d02t09.flac:2b7f4c62099fc08263922c4d1793f1da
theblack2019-03-03d02t10.flac:6a190773cb8b566d0ca0f4cdf8359a17
theblack2019-03-03d02t11.flac:4274524fe43b5749d2a12af7af7a246d

 length     expanded size    cdr  WAVE problems  fmt   ratio  filename
     1:20.69       14274332 B   ---   --   ---xx   flac  0.3970  theblack2019-03-03d01t01.flac
     3:33.28       37639100 B   ---   --   ---xx   flac  0.4683  theblack2019-03-03d01t02.flac
     1:16.02       13411148 B   ---   --   ---xx   flac  0.4827  theblack2019-03-03d01t03.flac
     4:08.00       43747244 B   ---   --   ---xx   flac  0.5183  theblack2019-03-03d01t04.flac
     5:39.61       59943116 B   ---   --   ---xx   flac  0.5020  theblack2019-03-03d01t05.flac
     4:06.16       43432076 B   ---   --   ---xx   flac  0.4677  theblack2019-03-03d01t06.flac
     5:14.72       55558988 B   ---   --   ---xx   flac  0.4916  theblack2019-03-03d01t07.flac
     5:21.59       56763212 B   ---   --   ---xx   flac  0.3795  theblack2019-03-03d01t08.flac
     4:55.57       52172108 B   ---   --   ---xx   flac  0.4115  theblack2019-03-03d01t09.flac
     6:03.14       64066172 B   ---   --   ---xx   flac  0.3881  theblack2019-03-03d01t10.flac
     5:48.02       61391948 B   ---   --   ---xx   flac  0.4123  theblack2019-03-03d01t11.flac
     6:49.68       72307580 B   ---   --   ---xx   flac  0.4439  theblack2019-03-03d02t01.flac
     4:30.30       47698604 B   ---   --   ---xx   flac  0.3828  theblack2019-03-03d02t02.flac
     3:33.20       37620284 B   ---   --   ---xx   flac  0.3072  theblack2019-03-03d02t03.flac
     3:33.00       37573244 B   ---   --   ---xx   flac  0.3686  theblack2019-03-03d02t04.flac
     6:23.46       67669436 B   ---   --   ---xx   flac  0.4376  theblack2019-03-03d02t05.flac
     4:58.58       52703660 B   ---   --   ---xx   flac  0.4884  theblack2019-03-03d02t06.flac
     1:39.70       17628284 B   ---   --   ---xx   flac  0.3212  theblack2019-03-03d02t07.flac
     5:30.60       58353164 B   ---   --   ---xx   flac  0.4400  theblack2019-03-03d02t08.flac
     4:52.51       51628796 B   ---   --   ---xx   flac  0.3497  theblack2019-03-03d02t09.flac
     1:23.58       14777660 B   ---   --   ---xx   flac  0.3816  theblack2019-03-03d02t10.flac
     6:12.33       65698460 B   ---   --   ---xx   flac  0.4898  theblack2019-03-03d02t11.flac
    96:56.49     1026058616 B                            0.4304  (22 files)






More information about the bittorrent mailing list