[bittorrent] Tribute - A Celebration Of The Allman Brothers Band City Winery Atlanta, Georgia 3/2/2019 (Schoeps MK4V'S FOB)

Automated Mailer noreply-bt.e at etree.org
Sun Mar 3 06:01:50 UTC 2019


Band:           Other
Torrent Name:   Tribute - A Celebration Of The Allman Brothers Band City Winery Atlanta, Georgia 3/2/2019 (Schoeps MK4V'S FOB)
Uploaded by:    zmanatl
DB Link:        
Details:        http://bt.etree.org/details.php?id=604562

Contact the seeder at http://db.etree.org/zmanatl

If the link to this show does not work, it was probably removed for
being non-trade-friendly.

Description / text file:
-------------------------
Tribute - Celebration Of The Allman Brothers Band
City Winery
Atlanta, Georgia
3/2/2019 

Source: Schoeps MK4V'S>CMC6>Lunatec V2>Sound Devices 722 (24/44.1)
SOB/DFC/KFC/ZFC/AARP 43' From Stage, 7 1/2' High
DSP: Sound Devices 722>Sound Forge 10.0>CD Wave>flac(16)
ID3 Tagged In Foobar 2000
Recorded By: Z-Man
Seeded By: Z-Man 

Disc I 

01 Announcement/Greeting And Introduction By Alex
02 Come And Go Blues
03 Blue Sky
04 Revival
05 Little Martha >
06 Ain't Wastin' Time No More 
07 *Statesboro Blues
08 *Don't Keep Me Wonderin' 
09 *Done Somebody Wrong
10 Don't Want You No More >
11 It Ain't My Cross To Bear
12 *Black-Hearted Woman 
13 Dreams
14 Jessica

Disc II 

01 Melissa
02 Midnight Rider 
03 *Stormy Monday
04 #In Memory Of Elizabeth Reed >
05 Drum Solo >
06 In Memory Of Elizabeth Reed
07 *Soulshine
08 Oliver Banter On Passing Of Musicians
09 *Trouble No More
10 *One Way Out
11 Whippin' Post
Encore:
12 Bring Em' Back
13 *You Don't Love Me >
14 *Southbund

* With Terry Dockery On Harmonica
# With Les Brers In A Minor Tease

Rod Gunther - Guitar
Larry Griggs - Guitar And Vocals
Chris Jones - Bass
Oliver Nichols - Vocals
Henry Davis - Keyboards And Vocals 
Mark Bishop - Drums
Tom Stinson - Drums
John Marsten - Percussion And Acoustic Guitar

tribute2019-03-02d01t01.flac:c1edf03d3375e46b4c962630f94f85c1
tribute2019-03-02d01t02.flac:06f44035cde30d6b4269badf0090d8a1
tribute2019-03-02d01t03.flac:f8637e242b82e4d5947a2c6124a837df
tribute2019-03-02d01t04.flac:47afb09907cb21f2dddb78f0f648fbeb
tribute2019-03-02d01t05.flac:02a0f6380e81b6e8bf810d96a2d1fe83
tribute2019-03-02d01t06.flac:094ea8c72b8ed9f7a4bb7019957034c5
tribute2019-03-02d01t07.flac:65b3fa5504b203d17c2a5d370d2485a7
tribute2019-03-02d01t08.flac:3aa93ed8b59eb193a4e6478974086c33
tribute2019-03-02d01t09.flac:3f4edaa2374a8af01fee3b9e37f21a8f
tribute2019-03-02d01t10.flac:38c270dc2217e12480ad9b9788d157a8
tribute2019-03-02d01t11.flac:7f46a668defb10152216bee03ef6e85a
tribute2019-03-02d01t12.flac:4ab880b7faa6760aead369a5b47234df
tribute2019-03-02d01t13.flac:a4851e4c07f1443c630c6eb47c9e17d5
tribute2019-03-02d01t14.flac:fce7870617cca0365e30deb5fc5cb910
tribute2019-03-02d02t01.flac:5feb0f415b39475c9e2a1159277bb6e9
tribute2019-03-02d02t02.flac:34e9e31cc016966aee71b6b3dee5cfc8
tribute2019-03-02d02t03.flac:239777f0104f35e0b6fb4e9fe0f0fc16
tribute2019-03-02d02t04.flac:1d9249c63ea003f470dcd2a005f19328
tribute2019-03-02d02t05.flac:0d699c9ed2e7f525535dddeaf81ff229
tribute2019-03-02d02t06.flac:fa60bd0b571c321add5ddef1fec49681
tribute2019-03-02d02t07.flac:dee3563c368d0318aae4a907cb9e88b4
tribute2019-03-02d02t08.flac:f2c2fccdf6d60c2bc6ee73b4c855072f
tribute2019-03-02d02t09.flac:d914db9ec1031fea0a1fddff616fbd96
tribute2019-03-02d02t10.flac:9e7e27749f1e85e3302bce742546825f
tribute2019-03-02d02t11.flac:c7164a6c158daac6503886d9ac6c4b50
tribute2019-03-02d02t12.flac:ad2f989eda079140bcf6bd7d1454e288
tribute2019-03-02d02t13.flac:13b1559dc9802f34d80d5b48e1c3c55b
tribute2019-03-02d02t14.flac:7895c9bbff6484d3bf094293abdbf7d0

length     expanded size    cdr  WAVE problems  fmt   ratio  filename
     0:55.66        9857276 B   ---   --   ---xx   flac  0.3979  tribute2019-03-02d01t01.flac
     5:46.34       61114412 B   ---   --   ---xx   flac  0.5031  tribute2019-03-02d01t02.flac
     6:05.07       64402508 B   ---   --   ---xx   flac  0.5097  tribute2019-03-02d01t03.flac
     5:10.25       54742844 B   ---   --   ---xx   flac  0.4938  tribute2019-03-02d01t04.flac
     2:51.47       30274988 B   ---   --   ---xx   flac  0.4874  tribute2019-03-02d01t05.flac
     4:29.25       47510444 B   ---   --   ---xx   flac  0.5084  tribute2019-03-02d01t06.flac
     5:17.02       55923548 B   ---   --   ---xx   flac  0.5353  tribute2019-03-02d01t07.flac
     4:02.11       42714716 B   ---   --   ---xx   flac  0.5350  tribute2019-03-02d01t08.flac
     5:27.72       57852188 B   ---   --   ---xx   flac  0.4831  tribute2019-03-02d01t09.flac
     2:36.30       27589004 B   ---   --   ---xx   flac  0.5667  tribute2019-03-02d01t10.flac
     4:45.34       50354012 B   ---   --   ---xx   flac  0.4920  tribute2019-03-02d01t11.flac
     5:31.50       58506044 B   ---   --   ---xx   flac  0.5688  tribute2019-03-02d01t12.flac
     9:30.40      100642124 B   ---   --   ---xx   flac  0.4760  tribute2019-03-02d01t13.flac
     8:09.20       86306684 B   ---   --   ---xx   flac  0.5598  tribute2019-03-02d01t14.flac
     6:05.12       64414268 B   ---   --   ---xx   flac  0.3948  tribute2019-03-02d02t01.flac
     4:47.65       50779724 B   ---   --   ---xx   flac  0.5168  tribute2019-03-02d02t02.flac
    12:13.70      129465884 B   ---   --   ---xx   flac  0.4650  tribute2019-03-02d02t03.flac
    10:17.30      108909404 B   ---   --   ---xx   flac  0.5452  tribute2019-03-02d02t04.flac
     0:54.73        9697340 B   ---   --   ---xx   flac  0.5032  tribute2019-03-02d02t05.flac
     1:04.66       11444876 B   ---   --   ---xx   flac  0.5165  tribute2019-03-02d02t06.flac
     5:07.10       54178364 B   ---   --   ---xx   flac  0.5296  tribute2019-03-02d02t07.flac
     1:59.66       21146876 B   ---   --   ---xx   flac  0.3055  tribute2019-03-02d02t08.flac
     4:33.20       48204284 B   ---   --   ---xx   flac  0.5284  tribute2019-03-02d02t09.flac
     7:42.10       81520364 B   ---   --   ---xx   flac  0.5358  tribute2019-03-02d02t10.flac
    11:43.33      124086860 B   ---   --   ---xx   flac  0.5572  tribute2019-03-02d02t11.flac
     0:53.33        9426860 B   ---   --   ---xx   flac  0.3524  tribute2019-03-02d02t12.flac
     5:04.74       53799692 B   ---   --   ---xx   flac  0.5465  tribute2019-03-02d02t13.flac
     6:40.27       70623548 B   ---   --   ---xx   flac  0.5455  tribute2019-03-02d02t14.flac
   149:48.02     1585489136 B                            0.5114  (28 files)











More information about the bittorrent mailing list