[bittorrent] Honeywood Tucker Brewing Company Tucker, Georgia 3/1/2019 (Schoeps MK4V'S SOB)

Automated Mailer noreply-bt.e at etree.org
Sat Mar 2 22:56:48 UTC 2019


Band:           Other
Torrent Name:   Honeywood Tucker Brewing Company Tucker, Georgia 3/1/2019 (Schoeps MK4V'S SOB)
Uploaded by:    zmanatl
DB Link:        
Details:        http://bt.etree.org/details.php?id=604559

Contact the seeder at http://db.etree.org/zmanatl

If the link to this show does not work, it was probably removed for
being non-trade-friendly.

Description / text file:
-------------------------
Honeywood
Tucker Brewing Company
Tucker, Georgia
3/1/2019 

Source: Schoeps MK4V'S>CMC6>Lunatec V2>Sound Devices 722 (24/44.1)
FOB/DFC/KFC/ZFC/AARP 12' From Stage, 7' High
DSP: Sound Devices 722>Sound Forge 10.0>CD Wave>flac(16)
ID3 Tagged In Foobar 2000
Recorded By: Z-Man
Seeded By: Z-Man 

Disc I 

01 Dark Hollow
02 Glendale Train
03 Commision Me
04 Mexicali Blues
05 Happy Birthday Mike
06 Land's End 
07 Back On The Train
08 Atlantic City
09 Dancin' In The Moonlight
10 Up On The Hill Where They Do The Boogie
11 Uncle Pen

Jason Koornick - Mandoli, BanJo, And Vocals
Russell Brown - Guitar And Vocals
Scott Balun - Bass
Jacques Dolan - Fiddle
Zach Harrison -Drums

honey2019-03-01d01t01.flac:ab6b63d3b03c5aad68e55fb653290b97
honey2019-03-01d01t02.flac:4011747965d2819dcc39426a9704ca9b
honey2019-03-01d01t03.flac:6f7a67943e17c645df2255701ff01ce2
honey2019-03-01d01t04.flac:759c6325533464293bb274fd8da0ce70
honey2019-03-01d01t05.flac:cc7da4fa99e9ce6fcc3fbdc76f4c35a0
honey2019-03-01d01t06.flac:e944c07399d2e64cdadcc0ef8bf5b872
honey2019-03-01d01t07.flac:3c2767de1e267a49c470dc9a493e99e7
honey2019-03-01d01t08.flac:044062f8319497e335cae38d93480411
honey2019-03-01d01t09.flac:83d41d4e8f80ca0755598aa60beefaee
honey2019-03-01d01t10.flac:1ea3bda96fdb08236f37113fd9317402
honey2019-03-01d01t11.flac:e963acb09692752edef96b0490ea6412

length     expanded size    cdr  WAVE problems  fmt   ratio  filename
     5:27.42       57781628 B   ---   --   ---xx   flac  0.4533  honey2019-03-01d01t01.flac
     5:48.13       61417820 B   ---   --   ---xx   flac  0.4547  honey2019-03-01d01t02.flac
     8:38.51       91495196 B   ---   --   ---xx   flac  0.4821  honey2019-03-01d01t03.flac
     4:46.70       50615084 B   ---   --   ---xx   flac  0.4964  honey2019-03-01d01t04.flac
     0:38.60        6844364 B   ---   --   ---xx   flac  0.4105  honey2019-03-01d01t05.flac
     8:46.27       92849948 B   ---   --   ---xx   flac  0.4445  honey2019-03-01d01t06.flac
     4:51.31       51405356 B   ---   --   ---xx   flac  0.4806  honey2019-03-01d01t07.flac
     7:53.52       83559548 B   ---   --   ---xx   flac  0.4951  honey2019-03-01d01t08.flac
     4:37.03       48869900 B   ---   --   ---xx   flac  0.4369  honey2019-03-01d01t09.flac
     5:43.54       60632252 B   ---   --   ---xx   flac  0.5070  honey2019-03-01d01t10.flac
     4:01.55       42641804 B   ---   --   ---xx   flac  0.4658  honey2019-03-01d01t11.flac
    61:14.08      648112900 B                            0.4713  (11 files)




More information about the bittorrent mailing list