[bittorrent] Frankly Scarlet Good Ol' Days Cumming, Georgia 3/1/2019 (Schoeps MK4V'S FOB)

Automated Mailer noreply-bt.e at etree.org
Sat Mar 2 15:41:08 UTC 2019


Band:           Other
Torrent Name:   Frankly Scarlet Good Ol' Days Cumming, Georgia 3/1/2019 (Schoeps MK4V'S FOB)
Uploaded by:    zmanatl
DB Link:        
Details:        http://bt.etree.org/details.php?id=604547

Contact the seeder at http://db.etree.org/zmanatl

If the link to this show does not work, it was probably removed for
being non-trade-friendly.

Description / text file:
-------------------------
Frankly Scarlet
Good Ol Days 
Cumming, Georgia
3/1/2019 

Source: Schoeps MK4V'S>CMC6>Lunatec V2>Sound Devices 722 (24/44.1)
FOB/DFC/KFC/ZFC/AARP 12' From Stage, 7' High
DSP: Sound Devices 722>Sound Forge 10.0>CD Wave>flac(16)
ID3 Tagged In Foobar 2000
Recorded By: Z-Man
Seeded By: Z-Man 

Disc I 1st Set

01 *Jam >
02 *Cold Rain And Snow 
03 *Brown-Eyed Women 
04 #Tuning/Switch Out Drummers
05 Deal
06 Looks Like Rain
07 Sugaree 
08 Viola Lee Blues

Disc II 2nd Set 

01 Kurt Makes Birthday Announcements
02 Help On The Way >
03 Slipknot! >
04 Franklin's Tower >
05 Jam > 
06 Franklin's Tower
07 @Gonesville
08 Dark Star >
09 Sugar Magnolia >
10 Scarlet Begonias >
11 Sunshine Daydream

Disc III 2nd Set Con't  

01 ^Playin' In The Band >
02 China-Cat Sunflower Jam >
03 I Know You Rider
04 Cassidy >
05 Wharf Rat >
06 Dark Star >
07 New Minglewood Blues >
08 We've Got The Funk >
09 New Minglewood Blues
Encore:
10 Casey Jones

* With Hayden Wall On Drums
# With Such A Night Tease/Kurt Arrives Back From Costa Rica 
@ First Time Played
^ With Supplication Jam

Kurt Tompkins - Drums And Vocals
Cassidy Wall - Guitar And Vocals
Critter - Guitar And Vocals
Katie Moore - Guitar And Vocals
John Marsh - Keyboards
Jerbo Foti - Bass

frankly2019-03-01d01t01.flac:c8323e318fa30aca19886a6f18fc3f85
frankly2019-03-01d01t02.flac:1410d36e179788dabcbbf527a580dff9
frankly2019-03-01d01t03.flac:687b854c88063f2b281a6a220556f78a
frankly2019-03-01d01t04.flac:72788ffa11a66eab91a5bf6168a2e3a9
frankly2019-03-01d01t05.flac:cc3b8dfd64548c6e5e470a799f7d5755
frankly2019-03-01d01t06.flac:3ef9c3cbfa20b625ca1f1db1ad3e5ee9
frankly2019-03-01d01t07.flac:d2ef8488954b45fc51a76dfb64818d4e
frankly2019-03-01d01t08.flac:b23d71d109dc5506808c13177031f19a
frankly2019-03-01d02t01.flac:c21946578fdced24d2deae66df33a79d
frankly2019-03-01d02t02.flac:169adbaf4af62b9638c45865df803655
frankly2019-03-01d02t03.flac:d055f3996f075c71f165d1a798504824
frankly2019-03-01d02t04.flac:cfcaa5039b52f7585b2f64e254eb6722
frankly2019-03-01d02t05.flac:7fb34a8701c175c46f0196e1bb8ceb09
frankly2019-03-01d02t06.flac:ff26a8233978170ecb5aebc5f1868d31
frankly2019-03-01d02t07.flac:af89ce5699b5be76da061f4f65e57b55
frankly2019-03-01d02t08.flac:a3891d45b52b6be67f39862bac095cec
frankly2019-03-01d02t09.flac:238bc114f57a24ac55d2875bc3fd2ebe
frankly2019-03-01d02t10.flac:66252a99ac852437cf4b8fd64993c131
frankly2019-03-01d02t11.flac:0422b625939a7af2cb5368d9c7d4c990
frankly2019-03-01d03t01.flac:ad72de8fd5f49c8b1c0c6846f387cadf
frankly2019-03-01d03t02.flac:4e02cf4e3eeaae3e9476dfccbd991307
frankly2019-03-01d03t03.flac:cea23d09dac25be55ab790978ca838bc
frankly2019-03-01d03t04.flac:9c8192f16de30e73c70b95bdad87e723
frankly2019-03-01d03t05.flac:3687b07d76bb04592a742b8e54d4e7a8
frankly2019-03-01d03t06.flac:d523704b0adc6ef9ba0cb6c47a438689
frankly2019-03-01d03t07.flac:f2b25e8965510cc367b276b219b4f7a3
frankly2019-03-01d03t08.flac:d8ecb3da6047992f032dce5a39fa1b7b
frankly2019-03-01d03t09.flac:b4cf71d423a06f606c6f13f7155ffd21
frankly2019-03-01d03t10.flac:bcbea573a584efa4cce6e5972b325a40

 length     expanded size    cdr  WAVE problems  fmt   ratio  filename
     6:06.00       64562444 B   ---   --   ---xx   flac  0.4606  frankly2019-03-01d01t01.flac
     7:32.48       79845740 B   ---   --   ---xx   flac  0.5470  frankly2019-03-01d01t02.flac
     6:57.46       73667036 B   ---   --   ---xx   flac  0.5648  frankly2019-03-01d01t03.flac
     3:33.27       37636748 B   ---   --   ---xx   flac  0.3613  frankly2019-03-01d01t04.flac
    11:51.57      125554508 B   ---   --   ---xx   flac  0.5048  frankly2019-03-01d01t05.flac
    12:13.45      129407084 B   ---   --   ---xx   flac  0.4751  frankly2019-03-01d01t06.flac
    14:02.01      148531196 B   ---   --   ---xx   flac  0.5000  frankly2019-03-01d01t07.flac
    10:17.74      109012892 B   ---   --   ---xx   flac  0.5346  frankly2019-03-01d01t08.flac
     0:42.45        7514684 B   ---   --   ---xx   flac  0.3648  frankly2019-03-01d02t01.flac
     5:52.65       62245724 B   ---   --   ---xx   flac  0.5471  frankly2019-03-01d02t02.flac
     4:39.11       49241516 B   ---   --   ---xx   flac  0.5582  frankly2019-03-01d02t03.flac
     7:57.08       84161660 B   ---   --   ---xx   flac  0.5099  frankly2019-03-01d02t04.flac
     7:35.68       80421980 B   ---   --   ---xx   flac  0.4951  frankly2019-03-01d02t05.flac
     3:20.26       35341196 B   ---   --   ---xx   flac  0.5174  frankly2019-03-01d02t06.flac
     8:08.70       86247884 B   ---   --   ---xx   flac  0.4594  frankly2019-03-01d02t07.flac
     9:07.52       96613148 B   ---   --   ---xx   flac  0.4658  frankly2019-03-01d02t08.flac
     5:57.06       62988956 B   ---   --   ---xx   flac  0.5904  frankly2019-03-01d02t09.flac
    10:09.00      107427644 B   ---   --   ---xx   flac  0.5241  frankly2019-03-01d02t10.flac
     1:31.43       16153580 B   ---   --   ---xx   flac  0.5571  frankly2019-03-01d02t11.flac
     8:20.14       88232972 B   ---   --   ---xx   flac  0.5263  frankly2019-03-01d03t01.flac
     1:59.21       21041036 B   ---   --   ---xx   flac  0.5190  frankly2019-03-01d03t02.flac
     6:34.43       69602780 B   ---   --   ---xx   flac  0.5122  frankly2019-03-01d03t03.flac
    13:48.11      146085116 B   ---   --   ---xx   flac  0.5042  frankly2019-03-01d03t04.flac
     9:57.48      105423740 B   ---   --   ---xx   flac  0.4736  frankly2019-03-01d03t05.flac
     1:42.11       18018716 B   ---   --   ---xx   flac  0.4872  frankly2019-03-01d03t06.flac
     7:15.55       76863404 B   ---   --   ---xx   flac  0.5347  frankly2019-03-01d03t07.flac
     3:06.35       32892764 B   ---   --   ---xx   flac  0.5326  frankly2019-03-01d03t08.flac
     0:58.12       10259468 B   ---   --   ---xx   flac  0.4905  frankly2019-03-01d03t09.flac
     8:29.18       89829980 B   ---   --   ---xx   flac  0.4959  frankly2019-03-01d03t10.flac
   199:48.60     2114825596 B                            0.5069  (29 files)





More information about the bittorrent mailing list