[bittorrent] gd1987-03-26.145505.ots.at835b.akg.d12e.blend.ackerman.noel.t-flac16

Automated Mailer noreply-bt.e at etree.org
Sat Mar 2 03:19:53 UTC 2019


Band:           Grateful Dead
Torrent Name:   gd1987-03-26.145505.ots.at835b.akg.d12e.blend.ackerman.noel.t-flac16
Uploaded by:    norm
DB Link:        
Details:        http://bt.etree.org/details.php?id=604541

Contact the seeder at http://db.etree.org/norm

If the link to this show does not work, it was probably removed for
being non-trade-friendly.

Description / text file:
-------------------------
143349 24 > 16 - same HASH served @ Lossless Legs

Grateful Dead

March 26, 1987
Hartford Civic Center 
Hartford, CT 
Sets I & II

Ackerman Archives

Ray Ackerman’s Master Audience Cassettes; 
Two x Audio Technica 835b + One x AKG D12e center fill > Realistic 32-1105A, 4 channel stereo mixer > Sony TCD5 (OTS) 

Transfer info;
Master Cassettes (Nakamichi 700 MKii) > Oade modified Grace Design Lunatec V3 > M-Audio MicroTrack II > WAV 24/96

Edited & Mastered by Joe Noel; 
WAV > Audacity > FLAC 24/96
October 19, 2018

This file set is 16 bit @ 44.1

Patch info:
- shnid 138700 (FOB Schoeps CMC4 MK41) supplies;
- s1t06; 04:28 - end
- s1t07; start - 00:09
- s2t06; start - 02:41

Notes:
- Thanks to Ray for the hi-res upgrade.
- Thanks to Oade Bros/Robert Bryant for supplying the patch source.
- This Row Jimmy confirmed my status as a 'sucker for a slow Jer'.
- Pitch corrected
- '87 Hartford was the ‘tea-hee fest'.

- Set I -
s1t01 - Midnight Hour
s1t02 - Cold Rain and Snow
s1t03 - C.C. Rider
s1t04 - Row Jimmy
s1t05 - My Brother Esau
s1t06 - When Push Comes To Shove ->
s1t07 - Desolation Row ->
s1t08 - Bird Song ->
s1t09 - Promised Land

- Set II -
s2t01 - China Cat Sunflower ->
s2t02 - I Know You Rider ->
s2t03 - Looks Like Rain
s2t04 - He's Gone ->
s2t05 - Drums ->
s2t06 - Space ->
s2t07 - I Need a Miracle ->
s2t08 - Black Peter ->
s2t09 - Around and Around ->
s2t10 - Good Lovin'
s2t11 - Quinn The Eskimo (The Mighty Quinn)

Tagging notes:
Show information is embedded within the header of each flac file. 
It will display on any player capable of directly playing flac files. 
If converted to wav during processing, all tags will be stripped, 
however audio data will remain unaffected. If you must 
transcode to a lossy format, do so directly Flac > Lossy.
Use ffp or st5 to validate audio integrity.
Md5 values will change if tagging is altered.
[J.Noel 20 October 2018]

    length     expanded size    cdr  WAVE problems  fmt   ratio  filename
     4:17.13       45365420 B   ---   --   ---xx   flac  0.5908  gd87-03-26.s1t01.flac
     6:31.39       69064172 B   ---   --   ---xx   flac  0.5830  gd87-03-26.s1t02.flac
     8:27.44       89538332 B   ---   --   ---xx   flac  0.5656  gd87-03-26.s1t03.flac
    11:45.62      124507868 B   ---   --   ---xx   flac  0.5518  gd87-03-26.s1t04.flac
     4:48.67       50960828 B   ---   --   ---xx   flac  0.5770  gd87-03-26.s1t05.flac
     4:39.37       49302668 B   ---   --   ---xx   flac  0.5953  gd87-03-26.s1t06.flac
     8:57.54       94853852 B   ---   --   ---xx   flac  0.5792  gd87-03-26.s1t07.flac
    10:27.11      110628716 B   ---   --   ---xx   flac  0.5769  gd87-03-26.s1t08.flac
     4:35.29       48578252 B   ---   --   ---xx   flac  0.6144  gd87-03-26.s1t09.flac
     5:48.38       61476620 B   ---   --   ---xx   flac  0.6247  gd87-03-26.s2t01.flac
     5:26.02       57511148 B   ---   --   ---xx   flac  0.6325  gd87-03-26.s2t02.flac
     8:29.45       89893484 B   ---   --   ---xx   flac  0.5863  gd87-03-26.s2t03.flac
    13:26.16      142216076 B   ---   --   ---xx   flac  0.5700  gd87-03-26.s2t04.flac
     8:47.69       93125132 B   ---   --   ---xx   flac  0.5702  gd87-03-26.s2t05.flac
     7:32.42       79831628 B   ---   --   ---xx   flac  0.4995  gd87-03-26.s2t06.flac
     4:35.69       48672332 B   ---   --   ---xx   flac  0.6086  gd87-03-26.s2t07.flac
     9:19.44       98711132 B   ---   --   ---xx   flac  0.5711  gd87-03-26.s2t08.flac
     3:49.30       40466204 B   ---   --   ---xx   flac  0.6290  gd87-03-26.s2t09.flac
     8:13.30       87035804 B   ---   --   ---xx   flac  0.6336  gd87-03-26.s2t10.flac
     4:30.36       47712716 B   ---   --   ---xx   flac  0.6091  gd87-03-26.s2t11.flac
   144:30.27     1529452384 B                            0.5825  (20 files)



More information about the bittorrent mailing list