[bittorrent] gd1986-12-17.145501.mtx.tobin.flac16

Automated Mailer noreply-bt.e at etree.org
Fri Mar 1 09:12:19 UTC 2019


Band:           Grateful Dead
Torrent Name:   gd1986-12-17.145501.mtx.tobin.flac16
Uploaded by:    norm
DB Link:        
Details:        http://bt.etree.org/details.php?id=604532

Contact the seeder at http://db.etree.org/norm

If the link to this show does not work, it was probably removed for
being non-trade-friendly.

Description / text file:
-------------------------
141745 24 > 16 - same HASH served @ Lossless Legs

Grateful Dead
December 17, 1986
Oakland-Alameda County Coliseum
Oakland, CA

SBD + AUD Matrix 2 Source Mix 

This file set is 16 bit @ 44.1

Set 1:
s1t01 - Alabama Getaway
s1t02 - The Promised Land
s1t03 - West L.A. Fadeaway
s1t04 - Tons Of Steel
s1t05 - Little Red Rooster
s1t06 - Tennessee Jed
s1t07 - Desolation Row
s1t08 - When Push Comes To Shove
s1t09 - The Music Never Stopped

Set 2:
s2t01 - Saint Of Circumstance
s2t02 - Cumberland Blues
s2t03 - Samson & Delilah
s2t04 - Ship Of Fools
s2t05 - Man Smart (Woman Smarter)
s2t06 - He's Gone
s2t07 - Drums *
s2t08 - Space
s2t09 - The Other One
s2t10 - Black Peter
s2t11 - Throwing Stones
s2t12 - Not Fade Away

Encore:
s2t13 - Not Fade Away Reprise
s2t14 - Brokedown Palace

Jerry Garcia - Guitar
Bob Weir - Guitar
Brent Mydland - Keyboards
Phil Lesh - Bass
Bill Kreutzmann - Drums
Mickey Hart - Drums
Sikiru Adepoju - Talking Drum *
Jose Lorenzo - Berimbau, Hand Percussion *

Audio Information:
Original  SBD (shnid = 139727)

Recording Info:
SBD > Cassette Master (Tascam Deck/TDK SA-X90)

Transfer Info:
Cassette Master (Nakamichi CR-7A) > Tascam DA-3000 (DSF 1-bit/5.8 MHz) >
KORG AudioGate 4 > Adobe Audition CC 2015 > Samplitude Pro X3 Suite > FLAC/24
(1 Disc FLAC)

All Transfers and Mastering By Charlie Miller
charliemiller87 at earthlink.net
April 19, 2017

Notes:
-- Drums with Babatunde Olatunji
-- Two sets of masters were used to make this show complete

Original  AUD (shnid = 139364)

Michael Hessberg Recording: Sennheiser ME80 > Cassette Master (Sony TC-D5M)

Charlie Miller DSD Transfer: Cassette Master (Nakamichi CR-7A) > Tascam DA-3000 (DSF 1-bit/5.8 MHz) > KORG AudioGate 4 > FLAC 24/96

Edited & Mastered in Audacity by Joe Noel: Flac 24/96

Both SBD and  AUD were patched with the following:
AUD (shnid = 131308)

OTS AUD: Nakamichi CM300/CP4 shotguns > patched thru one D5 >
Sony TC-D5M > Sony ES-Metal 90's, with no Dolby.

Transfer: MAC > Nakamichi CR-5A > Edirol FA-66 > Wavelab 2448 >
CD-Wave (24bit output) > TLH > FLAC 2448 tagged. Taped and
transferred by Andrew F. 09/2014
---------------------------------------------------------
- Mixed by kevtobin at yahoo.com
- FLAC conversion 21-APR-2018 - Trader Little Helper
- Tagged 21-APR-2018 - Tag&Rename
---------------------------------------------------------
Brokedown House Production

    length     expanded size    cdr  WAVE problems  fmt   ratio  filename
     4:53.63       51833420 B   ---   --   ---xx   flac  0.6842  gd1986-12-17s1t01.flac
     5:12.69       55199132 B   ---   --   ---xx   flac  0.6806  gd1986-12-17s1t02.flac
     9:39.53      102260300 B   ---   --   ---xx   flac  0.6525  gd1986-12-17s1t03.flac
     4:59.54       52870652 B   ---   --   ---xx   flac  0.6836  gd1986-12-17s1t04.flac
     9:51.04      104261852 B   ---   --   ---xx   flac  0.6613  gd1986-12-17s1t05.flac
     9:29.55      100501004 B   ---   --   ---xx   flac  0.6598  gd1986-12-17s1t06.flac
    11:44.11      124211516 B   ---   --   ---xx   flac  0.6625  gd1986-12-17s1t07.flac
     4:25.73       46917740 B   ---   --   ---xx   flac  0.6851  gd1986-12-17s1t08.flac
     6:17.50       66620444 B   ---   --   ---xx   flac  0.6822  gd1986-12-17s1t09.flac
     7:05.67       75127628 B   ---   --   ---xx   flac  0.6746  gd1986-12-17s2t01.flac
     4:24.59       46708412 B   ---   --   ---xx   flac  0.6752  gd1986-12-17s2t02.flac
     6:55.00       73206044 B   ---   --   ---xx   flac  0.6843  gd1986-12-17s2t03.flac
     9:26.71      100009436 B   ---   --   ---xx   flac  0.6308  gd1986-12-17s2t04.flac
     6:51.49       72615692 B   ---   --   ---xx   flac  0.6786  gd1986-12-17s2t05.flac
    12:45.48      135058940 B   ---   --   ---xx   flac  0.6393  gd1986-12-17s2t06.flac
    10:37.47      112477388 B   ---   --   ---xx   flac  0.6496  gd1986-12-17s2t07.flac
     9:27.13      100049420 B   ---   --   ---xx   flac  0.5835  gd1986-12-17s2t08.flac
     5:48.71       61554236 B   ---   --   ---xx   flac  0.6481  gd1986-12-17s2t09.flac
     9:14.51       97845596 B   ---   --   ---xx   flac  0.6367  gd1986-12-17s2t10.flac
     8:35.08       90864860 B   ---   --   ---xx   flac  0.6685  gd1986-12-17s2t11.flac
     8:24.69       89067932 B   ---   --   ---xx   flac  0.6527  gd1986-12-17s2t12.flac
     1:19.66       14090876 B   ---   --   ---xx   flac  0.6298  gd1986-12-17s2t13.flac
     6:13.59       65936012 B   ---   --   ---xx   flac  0.6407  gd1986-12-17s2t14.flac
   173:46.60     1839288532 B                            0.6555  (23 files)



More information about the bittorrent mailing list