[bittorrent] Leftover Salmon City Winery Atlanta, Georgia 2/28/2019 (Schoeps MK4V'S FOB)

Automated Mailer noreply-bt.e at etree.org
Fri Mar 1 06:50:37 UTC 2019


Band:           Leftover Salmon
Torrent Name:   Leftover Salmon City Winery Atlanta, Georgia 2/28/2019 (Schoeps MK4V'S FOB)
Uploaded by:    zmanatl
DB Link:        
Details:        http://bt.etree.org/details.php?id=604529

Contact the seeder at http://db.etree.org/zmanatl

If the link to this show does not work, it was probably removed for
being non-trade-friendly.

Description / text file:
-------------------------
Leftover Salmon
City Winery
Atlanta, Georgia
2/28/2019 

Source: Schoeps MK4V'S>CMC6>Lunatec V2>Sound Devices 722 (24/44.1)
FOB/DFC/KFC/ZFC/AARP 35' From Stage, 7 1/2' High
DSP: Sound Devices 722>Sound Forge 10.0>CD Wave>flac(16)
ID3 Tagged In Foobar 2000
Recorded By: Z-Man
Seeded By: Z-Man 

Disc I 

01 Announcement/Greeting
02 Tim Newby Introduces His Book, "Thirty Years Of Festival"/Video And Sound Clips Of Leftover Salmon
03 Movie Clips Of Leftover Salmon
04 Banter
05 Rocky Road Blues
06 With My Walkin' Shoes
07 High On A Mountain Top
08 Voodoo Queen Marie
09 Whisperin' Waters
10 Take Me Back To My Mountain Top
11 Bolin Creek

Disc II 

01 The Astral Traveler
02 Jokester
03 You Don't Miss Your Water
04 Piece Of My Heart
05 Places
06 The House Of Cards
07 Mama Boulet >
08 Drums And Bass >
09 Mama Boulet
10 Ain't Gonna Work Tomorrow
Encore:
11 Andy Thorn Calls Em' Back
12 Fastest Song
13 Let In A Little Light

Vince Herman - Acoustic Guitar And Vocals
Drew Emmitt - Mandolin And Vocals
Andy Thorn - BanJo, Fiddle, And Vocals
Greg Garrison - Bass And Vocals
Eric Deutsch - Keyboards And Vocals
Alwyn Robinson - Drums 

leftover2019-02-28d01t01.flac:68a65c2701861fffb9d712a9c314a216
leftover2019-02-28d01t02.flac:e870228d83b827173656e9e37cc54905
leftover2019-02-28d01t03.flac:e4651dd0408f616efb5eaaa6a9367be3
leftover2019-02-28d01t04.flac:f7262092c2c9fd97f79b4a7a733f221e
leftover2019-02-28d01t05.flac:d1485a88dbe4336cb0a6da3f15a10c71
leftover2019-02-28d01t06.flac:5f001c8c980421aed8ba182ca7934ec7
leftover2019-02-28d01t07.flac:0bed93bcf2e5651f0621eeb843b9c4df
leftover2019-02-28d01t08.flac:cb49f3247ce8f701f481f5d20100c041
leftover2019-02-28d01t09.flac:817b77c8edb9be7b143eacadd025cdf9
leftover2019-02-28d01t10.flac:df976473419846fdaa9e12a42bea825d
leftover2019-02-28d01t11.flac:8b683f5c774557185999c1531f94547c
leftover2019-02-28d02t01.flac:4988212949acfa3ebab34af181cdead6
leftover2019-02-28d02t02.flac:3872bbe423e29b71cfff91061a3ca462
leftover2019-02-28d02t03.flac:d9a4abdc6f23dfe485f382d7069314b8
leftover2019-02-28d02t04.flac:294a7bfe064b476ad23d1fe5c07d7014
leftover2019-02-28d02t05.flac:81647537e02db81bbf6cc5a00fc9401d
leftover2019-02-28d02t06.flac:ba1e9b85ad8b1744e49e00fc6c3547e9
leftover2019-02-28d02t07.flac:78fb0074fedbdf8d05c3138b5e67ff2d
leftover2019-02-28d02t08.flac:e9182502de7cdfb8adb0390a17003b56
leftover2019-02-28d02t09.flac:7ac8508a4bb4661496544fee40cd6751
leftover2019-02-28d02t10.flac:54ec583a88856db569f4ac124b7e9104
leftover2019-02-28d02t11.flac:7a8cb1315338cb89f9b0265fa16ef2c6
leftover2019-02-28d02t12.flac:9b38187ea294a11ce96df59dd0c483e9
leftover2019-02-28d02t13.flac:1010c9015eb369b0c23655e7d1e5aeb3

length     expanded size    cdr  WAVE problems  fmt   ratio  filename
     1:16.02       13411148 B   ---   --   ---xx   flac  0.4295  leftover2019-02-28d01t01.flac
     6:28.29       68511452 B   ---   --   ---xx   flac  0.4029  leftover2019-02-28d01t02.flac
    12:13.26      129362396 B   ---   --   ---xx   flac  0.5364  leftover2019-02-28d01t03.flac
     1:25.49       15109292 B   ---   --   ---xx   flac  0.3963  leftover2019-02-28d01t04.flac
     4:57.25       52449644 B   ---   --   ---xx   flac  0.5347  leftover2019-02-28d01t05.flac
     4:44.20       50144684 B   ---   --   ---xx   flac  0.4868  leftover2019-02-28d01t06.flac
     6:14.66       66128876 B   ---   --   ---xx   flac  0.4889  leftover2019-02-28d01t07.flac
     3:11.39       33784172 B   ---   --   ---xx   flac  0.5432  leftover2019-02-28d01t08.flac
    16:23.35      173483564 B   ---   --   ---xx   flac  0.5045  leftover2019-02-28d01t09.flac
     5:19.08       56290460 B   ---   --   ---xx   flac  0.5324  leftover2019-02-28d01t10.flac
    14:19.11      151553516 B   ---   --   ---xx   flac  0.4848  leftover2019-02-28d01t11.flac
     7:40.65       81296924 B   ---   --   ---xx   flac  0.4911  leftover2019-02-28d02t01.flac
     5:30.19       58256732 B   ---   --   ---xx   flac  0.5375  leftover2019-02-28d02t02.flac
     5:37.52       59569148 B   ---   --   ---xx   flac  0.4819  leftover2019-02-28d02t03.flac
     6:05.09       64407212 B   ---   --   ---xx   flac  0.5127  leftover2019-02-28d02t04.flac
     6:53.57       72987308 B   ---   --   ---xx   flac  0.5198  leftover2019-02-28d02t05.flac
     7:06.29       75214652 B   ---   --   ---xx   flac  0.4596  leftover2019-02-28d02t06.flac
     3:36.02       38107148 B   ---   --   ---xx   flac  0.5709  leftover2019-02-28d02t07.flac
     2:03.65       21850124 B   ---   --   ---xx   flac  0.5541  leftover2019-02-28d02t08.flac
     3:25.02       36166748 B   ---   --   ---xx   flac  0.5460  leftover2019-02-28d02t09.flac
     4:54.66       52016876 B   ---   --   ---xx   flac  0.5505  leftover2019-02-28d02t10.flac
     1:28.28       15589100 B   ---   --   ---xx   flac  0.4728  leftover2019-02-28d02t11.flac
     0:29.18        5157980 B   ---   --   ---xx   flac  0.4342  leftover2019-02-28d02t12.flac
     5:33.31       58814156 B   ---   --   ---xx   flac  0.4911  leftover2019-02-28d02t13.flac
   136:58.03     1449663312 B                            0.5029  (24 files)






More information about the bittorrent mailing list