[bittorrent] gd1986-07-04.145496.fob.senn441.akerman.noel.t-flac16

Automated Mailer noreply-bt.e at etree.org
Fri Mar 1 02:14:22 UTC 2019


Band:           Grateful Dead
Torrent Name:   gd1986-07-04.145496.fob.senn441.akerman.noel.t-flac16
Uploaded by:    norm
DB Link:        
Details:        http://bt.etree.org/details.php?id=604527

Contact the seeder at http://db.etree.org/norm

If the link to this show does not work, it was probably removed for
being non-trade-friendly.

Description / text file:
-------------------------
143038 24 > 16 - same HASH served @ Lossless Legs

Grateful Dead

July 04, 1986
Rich Stadium, 
Orchard Park, NY
Sets I & II

Ackerman Archives

Recording & Transfer by Ray Ackerman;
Sennheiser 441 > Sony D5 > Master Audience Cassettes (FOB)

Transfer; Master Cassettes (Nakamichi 700 MKii) > Oade modified Grace Design Lunatec V3 > M-Audio MicroTrack II > WAV 24/96

Edited & Mastered by Joe Noel
WAV > Audacity > FLAC 24/96
August 28, 2018

This file set is 16 bit @ 44.1

Patch Info:
- shnid 111541 (Nakamichi CM300/CP4 Shotguns) supplies;
- s1t01; all
- shnid 13565 (Senn 441) supplies;
- s2t07; 08:14 - end
- s2t08; start - 00:55

Notes:
- Thanks to Ray for taping & sharing
- Thanks to Floater & Keo for the set I source
- Thanks to Don Crandel for the set II patch
- Tape pauses (s1) cross faded
- The band is "stalling for time" at the onset
- Bob Dylan, Petty & Heartbreakers opened.
* broadcast live via satellite to Farm Aid in Austin, TX. 
- "Welcome America. Welcome Austin, TX. Welcome everyone to Farm Aid TV. Looks like were gonna tune up now." - P. Lesh
- "America is at its backbone an agrarian nation. Lets keep it turning." - B. Weir
- The thing I remember most about this show was people freaking out when heads got excited after the CR&S set II opener.  People started hearing "Fire" & looking around wondering where.

- Set I -
s1t01 - tuning
s1t02 - Jack Straw
s1t03 - Dupree's Diamond Blues
s1t04 - C.C. Rider
s1t05 - Tennessee Jed
s1t06 - My Brother Esau
s1t07 - Touch of Grey

- Set II -
s2t01 - Cold Rain and Snow ->
s2t02 - Fire on the Mountain ->
s2t03 - Samson and Delilah *
s2t04 - The Wheel -> *
s2t05 - I Need a Miracle -> *
s2t06 - Uncle John's Band ->
s2t07 - Drums ->
s2t08 - Space ->
s2t09 - Gimme Some Lovin' ->
s2t10 - Goin' Down The Road Feelin' Bad ->
s2t11 - Turn On Your Love Light
      - encore
s2t12 - U.S. Blues

Tagging notes:
Show information is embedded within the header of each flac file. 
It will display on any player capable of directly playing flac files. 
If converted to wav during processing, all tags will be stripped, 
however audio data will remain unaffected. If you must 
transcode to a lossy format, do so directly Flac > Lossy.
Use ffp or st5 to validate audio integrity.
Md5 values will change if tagging is altered.
[J.Noel 28 August 2018]

    length     expanded size    cdr  WAVE problems  fmt   ratio  filename
     2:54.10       30717164 B   ---   --   ---xx   flac  0.5208  gd86-07-04.s1t01.flac
     5:37.45       59552684 B   ---   --   ---xx   flac  0.5305  gd86-07-04.s1t02.flac
     6:28.43       68544380 B   ---   --   ---xx   flac  0.5513  gd86-07-04.s1t03.flac
     6:57.45       73664684 B   ---   --   ---xx   flac  0.5429  gd86-07-04.s1t04.flac
     7:57.66       84298076 B   ---   --   ---xx   flac  0.5108  gd86-07-04.s1t05.flac
     4:15.71       45149036 B   ---   --   ---xx   flac  0.5219  gd86-07-04.s1t06.flac
     5:28.61       58002716 B   ---   --   ---xx   flac  0.5443  gd86-07-04.s1t07.flac
     5:57.23       63028940 B   ---   --   ---xx   flac  0.5218  gd86-07-04.s2t01.flac
     9:26.16       99880076 B   ---   --   ---xx   flac  0.5509  gd86-07-04.s2t02.flac
     5:32.30       58635404 B   ---   --   ---xx   flac  0.5687  gd86-07-04.s2t03.flac
     4:35.60       48651164 B   ---   --   ---xx   flac  0.5483  gd86-07-04.s2t04.flac
     3:32.13       37427420 B   ---   --   ---xx   flac  0.5606  gd86-07-04.s2t05.flac
     7:24.52       78443948 B   ---   --   ---xx   flac  0.5444  gd86-07-04.s2t06.flac
     8:24.13       88936220 B   ---   --   ---xx   flac  0.5062  gd86-07-04.s2t07.flac
     5:49.71       61730636 B   ---   --   ---xx   flac  0.4934  gd86-07-04.s2t08.flac
     5:11.08       54879260 B   ---   --   ---xx   flac  0.5414  gd86-07-04.s2t09.flac
     5:04.09       53646812 B   ---   --   ---xx   flac  0.5685  gd86-07-04.s2t10.flac
     4:18.16       45548876 B   ---   --   ---xx   flac  0.5340  gd86-07-04.s2t11.flac
     4:41.21       49617836 B   ---   --   ---xx   flac  0.5566  gd86-07-04.s2t12.flac
   109:37.73     1160355332 B                            0.5367  (19 files)



More information about the bittorrent mailing list