[bittorrent] Randall Bramblett Band SongBird North Chattanooga, Tennessee 11/9/2018 (Schoeps CCM4V'S FOB)

Automated Mailer noreply-bt.e at etree.org
Sun Nov 11 05:31:09 UTC 2018


Band:           Other
Torrent Name:   Randall Bramblett Band SongBird North Chattanooga, Tennessee 11/9/2018 (Schoeps CCM4V'S FOB)
Uploaded by:    zmanatl
DB Link:        
Details:        http://bt.etree.org/details.php?id=602693

Contact the seeder at http://db.etree.org/zmanatl

If the link to this show does not work, it was probably removed for
being non-trade-friendly.

Description / text file:
-------------------------
Randall Bramblett Band
SongBird North
Chattanooga, Tennessee
11/9/2018 

Source: Schoeps CCM4V's>Lunatec V2>Sound Devices 722 (24/44)
FOB/DFC/KFC/ZFC/AARP Front Row, 5' From Stage, 7 1/2' High
DSP: Sound Devices 722>Sound Forge 10.0>CD Wave>flac(16)
ID3 Tagged In Foobar 2000
Recorded By: Z-Man
Seeded By: Z-Man 

Disc I 

01 Introduction/Randall Banter
02 I Don't Care 
03 Black Coat
04 Blue Road
05 Chet Baker
06 Used To Rule The World
07 Driving To Montgomery
08 Dead In The Water
09 Devil Music
10 Bottom Of The Ocean

Disc II 

01 Angel Child 
02 Pothole On Main Street
03 Garbage Man 
04 I'd like To Get To Know You, I'd Like To Be Your Friend
05 ?
06 Everybody's Got It On The Inside >
07 Get In, Get Out
08 Band Introductions/Outro

Randall Bramblett - Keyboards, Saxophone, And Vocals
Nick Johnson - Guitar
Michael Steele - Bass And Vocals
Seth Hendershot - Drums

randall2018-11-09d01t01.flac:6460c2bc7bb99c6d40a9e5e676a3d7e5
randall2018-11-09d01t02.flac:63122c22be7452a4adff49d7e0a8aac8
randall2018-11-09d01t03.flac:62928dafbc79477a1d90a00cd0d27be9
randall2018-11-09d01t04.flac:504a8452a8a785b7d01cbea25f047bdb
randall2018-11-09d01t05.flac:a7c646431c633149dd68364be846ee4c
randall2018-11-09d01t06.flac:e44dcd6a4fae8498c74212e7328d1960
randall2018-11-09d01t07.flac:2d42b3f8df6afdfddf8c35c1c8dd2459
randall2018-11-09d01t08.flac:7a3804cf091c5f274a0b1ea0d5ac7d72
randall2018-11-09d01t09.flac:a0a55f2d153de48b97a3f51cc5554ff0
randall2018-11-09d01t10.flac:c814c80493c408b160e3acaa28867660
randall2018-11-09d02t01.flac:53853a1ad187056bd5ec2c89a9c386f8
randall2018-11-09d02t02.flac:7d36159026d5e9ae46fc8215b8f84406
randall2018-11-09d02t03.flac:eb7ff2ffd9b8d4c546ab9cfb9fd3b013
randall2018-11-09d02t04.flac:a9f2510246bb2b0d0760c12471af2255
randall2018-11-09d02t05.flac:6afb8f7ad76782ae5b0879d200738ac6
randall2018-11-09d02t06.flac:528c2fdcefbdca00b5a2d14591423ff1
randall2018-11-09d02t07.flac:7526017d0869d59890ff84a1dee08e6c
randall2018-11-09d02t08.flac:3360f9d74dd2be3065f937d542bdfc85

length     expanded size    cdr  WAVE problems  fmt   ratio  filename
     2:22.16       25086476 B   ---   --   ---xx   flac  0.3375  randall2018-11-09d01t01.flac
     5:36.22       59322188 B   ---   --   ---xx   flac  0.4956  randall2018-11-09d01t02.flac
     7:50.13       82938620 B   ---   --   ---xx   flac  0.5189  randall2018-11-09d01t03.flac
     7:48.58       82691660 B   ---   --   ---xx   flac  0.4746  randall2018-11-09d01t04.flac
     5:54.24       62502092 B   ---   --   ---xx   flac  0.4601  randall2018-11-09d01t05.flac
     5:59.67       63485228 B   ---   --   ---xx   flac  0.4895  randall2018-11-09d01t06.flac
     4:12.17       44492828 B   ---   --   ---xx   flac  0.4800  randall2018-11-09d01t07.flac
     5:03.02       53453948 B   ---   --   ---xx   flac  0.4982  randall2018-11-09d01t08.flac
     8:12.05       86800604 B   ---   --   ---xx   flac  0.5099  randall2018-11-09d01t09.flac
     4:21.42       46139228 B   ---   --   ---xx   flac  0.5558  randall2018-11-09d01t10.flac
     6:45.36       71526716 B   ---   --   ---xx   flac  0.5212  randall2018-11-09d02t01.flac
     9:11.41       97292876 B   ---   --   ---xx   flac  0.5200  randall2018-11-09d02t02.flac
     7:52.49       83376092 B   ---   --   ---xx   flac  0.4803  randall2018-11-09d02t03.flac
     5:38.21       59672636 B   ---   --   ---xx   flac  0.4538  randall2018-11-09d02t04.flac
     9:56.72      105303788 B   ---   --   ---xx   flac  0.4758  randall2018-11-09d02t05.flac
     7:56.04       83975852 B   ---   --   ---xx   flac  0.4687  randall2018-11-09d02t06.flac
     8:52.48       93957740 B   ---   --   ---xx   flac  0.5157  randall2018-11-09d02t07.flac
     1:00.59       10722812 B   ---   --   ---xx   flac  0.4133  randall2018-11-09d02t08.flac
   114:34.71     1212741384 B                            0.4908  (18 files)






More information about the bittorrent mailing list