[bittorrent] Foundation Of Funk Celebrating 50 Years Of The Meters Capitol Theatre Port Chester, New York 8/23/2018 (Schoeps CCM4V'S FOB)

Automated Mailer noreply-bt.e at etree.org
Fri Aug 24 17:00:01 UTC 2018


Band:           Other
Torrent Name:   Foundation Of Funk Celebrating 50 Years Of The Meters Capitol Theatre Port Chester, New York 8/23/2018 (Schoeps CCM4V'S FOB)
Uploaded by:    zmanatl
DB Link:        
Details:        http://bt.etree.org/details.php?id=601066

Contact the seeder at http://db.etree.org/zmanatl

If the link to this show does not work, it was probably removed for
being non-trade-friendly.

Description / text file:
-------------------------
Foundation Of Funk
Celebrating 50 Years Of The Meters
Capitol Theatre
Port Chester, New York
8/23/2018 

Source: Schoeps CCM4V's>Lunatec V2>Sound Devices 722 (24/44)
FOB/DFC/KFC/ZFC/AARP 35' From Stage, 7' High
DSP: Sound Devices 722>Sound Forge 10.0>CD Wave>flac(16)
ID3 Tagged In Foobar 2000
Recorded By: Z-Man
Seeded By: Z-Man 

Disc I

01 Greeting/Banter
02 Same Old Thing
03 Hand Clapping Song
04 Chicken Strut
05 *Funkify Your Life
06 *Chug-A-Lug
07 *Fire On The Bayou >
08 Birds Of A Feather
09 Banter
10 Stretch Your Rubber Band
10 Banter
 
Disc II

01 Cissy Strut >
02 It's Your Thing >
03 Look-Ka Py Py
04 Banter/Tuning >
05 *Come Together
06 *Be My Lady >
07 Name Up In Lihts
08 Band Introductions/Thanks
09 Ain't No Use
10 Band Introductions
Encore:
11 Banter
12 *Luv Slip Up On Ya >
13 *Talkin' 'Bout New Orleans

* Cyril Neville On Vocals

George Porter Jr. - Bass And Vocals
Zigaboo Modeliste - Drums And Vocals
Cyril Neville - Vocals
Ivan Neville - Keyboards And Vocals
Tony Hall - Guitar And Vocals
Ian Neville - Guitar

foundation2018-08-23d01t01.flac:2a51639167545489aeaf6d1c993ca2f8
foundation2018-08-23d01t02.flac:9f44560f9c2834bb46175f32c9ba8b2b
foundation2018-08-23d01t03.flac:401074e0bebc89131335cfd242f8652c
foundation2018-08-23d01t04.flac:9e8849be2317bb0df5f55b474b98c2a9
foundation2018-08-23d01t05.flac:3e139b033723a78229decc5228fd516e
foundation2018-08-23d01t06.flac:4fa08dabd2e063f8788fc0ebba30fd50
foundation2018-08-23d01t07.flac:24d411cc59483a5e026d7ee0a0fc4e2e
foundation2018-08-23d01t08.flac:109caaaeb102a8049d6f420341514ce8
foundation2018-08-23d01t09.flac:5d3a8216804e0eb9855382d2a98ef462
foundation2018-08-23d01t10.flac:e622751e613b284edb6829cd8236c5d8
foundation2018-08-23d01t11.flac:7a38fe5aec2f0b5da634bbc892b91a51
foundation2018-08-23d02t01.flac:ddc49b0922b12abfb53e5d3a5b50071a
foundation2018-08-23d02t02.flac:7caf7eaf4753a541ae596b4346509e65
foundation2018-08-23d02t03.flac:ec3430a507423ee3ba09c27e336dc15d
foundation2018-08-23d02t04.flac:7bef12e30023712c3ce607e7d7424256
foundation2018-08-23d02t05.flac:40d1c8e824dafe7a4e9ced5278425c6e
foundation2018-08-23d02t06.flac:ff33d6b512d175c8e9314808e1976de9
foundation2018-08-23d02t07.flac:3a09e4f9472fa4773ccd9e2b376f68a2
foundation2018-08-23d02t08.flac:0b0fe9d662a616ff2392332da8fec193
foundation2018-08-23d02t09.flac:fa30c2b67ae25bd40d901281da5be10f
foundation2018-08-23d02t10.flac:86b8f78d5057ac8da6ed4f4ee1b1d61d
foundation2018-08-23d02t11.flac:9775c1bad312aaefeb41627c60498428
foundation2018-08-23d02t12.flac:392ae51911d13691d7944125f2f2ae8f
foundation2018-08-23d02t13.flac:012304022ef66b7ce6b900d6211588eb

  length     expanded size    cdr  WAVE problems  fmt   ratio  filename
     0:58.46       10339436 B   ---   --   ---xx   flac  0.3195  foundation2018-08-23d01t01.flac
     4:07.63       43719020 B   ---   --   ---xx   flac  0.5106  foundation2018-08-23d01t02.flac
     3:46.36       39951116 B   ---   --   ---xx   flac  0.5195  foundation2018-08-23d01t03.flac
     5:50.27       61803548 B   ---   --   ---xx   flac  0.4716  foundation2018-08-23d01t04.flac
     5:08.23       54385340 B   ---   --   ---xx   flac  0.5278  foundation2018-08-23d01t05.flac
     6:31.47       69082988 B   ---   --   ---xx   flac  0.5250  foundation2018-08-23d01t06.flac
     8:27.67       89592428 B   ---   --   ---xx   flac  0.5420  foundation2018-08-23d01t07.flac
    12:28.52      132069548 B   ---   --   ---xx   flac  0.5053  foundation2018-08-23d01t08.flac
     2:44.05       28941404 B   ---   --   ---xx   flac  0.3904  foundation2018-08-23d01t09.flac
     5:35.21       59143436 B   ---   --   ---xx   flac  0.5071  foundation2018-08-23d01t10.flac
     2:10.13       22962620 B   ---   --   ---xx   flac  0.3791  foundation2018-08-23d01t11.flac
     5:57.27       63038348 B   ---   --   ---xx   flac  0.5017  foundation2018-08-23d02t01.flac
     1:58.50       20932844 B   ---   --   ---xx   flac  0.5101  foundation2018-08-23d02t02.flac
     4:41.64       49718972 B   ---   --   ---xx   flac  0.5314  foundation2018-08-23d02t03.flac
     2:09.03       22762700 B   ---   --   ---xx   flac  0.3793  foundation2018-08-23d02t04.flac
     6:18.18       66721580 B   ---   --   ---xx   flac  0.5137  foundation2018-08-23d02t05.flac
     8:15.32       87393308 B   ---   --   ---xx   flac  0.4890  foundation2018-08-23d02t06.flac
     6:55.39       73297772 B   ---   --   ---xx   flac  0.5365  foundation2018-08-23d02t07.flac
     2:09.11       22781516 B   ---   --   ---xx   flac  0.4023  foundation2018-08-23d02t08.flac
     9:16.43       98179580 B   ---   --   ---xx   flac  0.5030  foundation2018-08-23d02t09.flac
     0:39.26        6940796 B   ---   --   ---xx   flac  0.4603  foundation2018-08-23d02t10.flac
     2:22.63       25197020 B   ---   --   ---xx   flac  0.3674  foundation2018-08-23d02t11.flac
     8:43.61       92400716 B   ---   --   ---xx   flac  0.5205  foundation2018-08-23d02t12.flac
     6:41.38       70825820 B   ---   --   ---xx   flac  0.5245  foundation2018-08-23d02t13.flac
   123:58.50     1312181856 B                            0.4997  (24 files)





More information about the bittorrent mailing list