[bittorrent] Angel Forrest Trio Chenango Blues Fest Norwich, New York 8/17/2018 (Schoeps CCM4V'S FOB)

Automated Mailer noreply-bt.e at etree.org
Tue Aug 21 14:39:13 UTC 2018


Band:           Other
Torrent Name:   Angel Forrest Trio Chenango Blues Fest Norwich, New York 8/17/2018 (Schoeps CCM4V'S FOB)
Uploaded by:    zmanatl
DB Link:        
Details:        http://bt.etree.org/details.php?id=601040

Contact the seeder at http://db.etree.org/zmanatl

If the link to this show does not work, it was probably removed for
being non-trade-friendly.

Description / text file:
-------------------------
Angel Forrest Trio
Chenango Blues Fest
Norwich, New York
8/17/2018 

Source: Schoeps CCM4V's>Lunatec V2>Sound Devices 722 (24/44)
FOB/DFC/KFC/ZFC/AARP 45' From Stage, 7 1/2' High
DSP: Sound Devices 722>Sound Forge 10.0>CD Wave>flac(16)
ID3 Tagged In Foobar 2000
Recorded By: Z-Man
Seeded By: Z-Man 

Disc I

01 Greeting And Introduction By Eric Laden
02 
03 Start All Over When You're Through
04 Walkin' Blues
05 House Of The Risin' Sun
06 Goodbye
07 Roll On Down
08 Hold On Tight.. Mr. I'm Alright
09 Mother Tongue Blues
10 Dirty Blues
11 Me And Bobby McGee
12 ? >
13 Whole Lotta Love >

Angel Forrest - Vocals
Ricky Pauquette - Guitar
Dennis Columbus - Guitar And Vocals

angel2018-08-17d01t01.flac:643f03ffccf2ab07f16fc299e8aaee66
angel2018-08-17d01t02.flac:4b33874ffae87c9536b4d9a35c3c074c
angel2018-08-17d01t03.flac:9a986c06f43c6fd4b35f6dd4f3b02998
angel2018-08-17d01t04.flac:471e002c0a2d7cda9cfef6d9b679754d
angel2018-08-17d01t05.flac:85db7caa3d76e5704848f34157e4766d
angel2018-08-17d01t06.flac:2471765da9f7b17d0b803077bed5cbfe
angel2018-08-17d01t07.flac:9631e0ba19714cc2556eea39b7d21f70
angel2018-08-17d01t08.flac:36ab80c0d908c7f9f3a6806a03deee49
angel2018-08-17d01t09.flac:9a204fbd939d8e4cabd37d7d285b6601
angel2018-08-17d01t10.flac:be63467db965660836ce837254c7cec3
angel2018-08-17d01t11.flac:bb09f78af83385e2c198dc113af3f55d
angel2018-08-17d01t12.flac:aebdfa96a445ec971c92ad54c5bff2bb
angel2018-08-17d01t13.flac:e24792006ed68340b9b996926a11e5e0

 length     expanded size    cdr  WAVE problems  fmt   ratio  filename
     1:15.07       13246508 B   ---   --   ---xx   flac  0.3557  angel2018-08-17d01t01.flac
     4:19.17       45727628 B   ---   --   ---xx   flac  0.4485  angel2018-08-17d01t02.flac
     6:37.54       70157852 B   ---   --   ---xx   flac  0.4076  angel2018-08-17d01t03.flac
     7:21.12       77820668 B   ---   --   ---xx   flac  0.4151  angel2018-08-17d01t04.flac
     7:12.53       76329500 B   ---   --   ---xx   flac  0.4220  angel2018-08-17d01t05.flac
     6:11.40       65538524 B   ---   --   ---xx   flac  0.4091  angel2018-08-17d01t06.flac
     4:24.13       46600220 B   ---   --   ---xx   flac  0.4430  angel2018-08-17d01t07.flac
     5:37.60       59587964 B   ---   --   ---xx   flac  0.4364  angel2018-08-17d01t08.flac
     5:21.15       56659724 B   ---   --   ---xx   flac  0.4351  angel2018-08-17d01t09.flac
     8:16.66       87649676 B   ---   --   ---xx   flac  0.4130  angel2018-08-17d01t10.flac
     5:47.65       61363724 B   ---   --   ---xx   flac  0.4725  angel2018-08-17d01t11.flac
     5:01.36       53181116 B   ---   --   ---xx   flac  0.4397  angel2018-08-17d01t12.flac
     6:26.12       68118668 B   ---   --   ---xx   flac  0.4544  angel2018-08-17d01t13.flac
    73:53.00      781981772 B                            0.4297  (13 files)




More information about the bittorrent mailing list