[bittorrent] Chenango Blues Fest Norwich, New York 8/17/2018 (Schoeps CCM4V'S FOB)

Automated Mailer noreply-bt.e at etree.org
Tue Aug 21 14:41:04 UTC 2018


Band:           Other
Torrent Name:    Chenango Blues Fest Norwich, New York 8/17/2018 (Schoeps CCM4V'S FOB)
Uploaded by:    zmanatl
DB Link:        
Details:        http://bt.etree.org/details.php?id=601041

Contact the seeder at http://db.etree.org/zmanatl

If the link to this show does not work, it was probably removed for
being non-trade-friendly.

Description / text file:
-------------------------
John "Papa" Gros
Chenango Blues Fest
Norwich, New York
8/17/2018 

Source: Schoeps CCM4V's>Lunatec V2>Sound Devices 722 (24/44)
FOB/DFC/KFC/ZFC/AARP 45' From Stage, 7 1/2' High
DSP: Sound Devices 722>Sound Forge 10.0>CD Wave>flac(16)
ID3 Tagged In Foobar 2000
Recorded By: Z-Man
Seeded By: Z-Man 

Disc I

01 Greeting And Introduction By Eric
02 People Say >
03 Makes A Better World >
04 All That I've Got
05 Sugar And Ice
06 House Of Love
07 *It's Raining
08 Cocaine And Chicken Fricassee >
09 Drum Solo >
10 ?
11 Band Introductions
12 River's On Fire
13 Ballad Of Well Known Gun
14 Ain't No Use
15 Outro By Eric 

johngros2018-08-17d01t01.flac:176237ae4a80c3ca82e63ed0cc5d97e3
johngros2018-08-17d01t02.flac:78d4d511d4531c4a7c80cb6de24340fc
johngros2018-08-17d01t03.flac:cff022972531c9b9bcd6df15ec70663f
johngros2018-08-17d01t04.flac:e8ab005b12a0ea26c6352c9e902b4de7
johngros2018-08-17d01t05.flac:d1ec32c49ebd08ed28bb35386b396353
johngros2018-08-17d01t06.flac:0019512264e52471123c8f35fb25a6aa
johngros2018-08-17d01t07.flac:3683ef117d6d583351b49b91e918f781
johngros2018-08-17d01t08.flac:002bd98acfb788c62abf7ff438ec7022
johngros2018-08-17d01t09.flac:5dad66858cab9e1e6f8ebd0286381dea
johngros2018-08-17d01t10.flac:6d94eff8d49d7546d91dbf2516a47e97
johngros2018-08-17d01t11.flac:adcb5a6ec428d4f24819d96a48644328
johngros2018-08-17d01t12.flac:9986d7a66c6aa1842932e40df8e548ea
johngros2018-08-17d01t13.flac:5edda2eb4df960bff772e60cf9f4f47c
johngros2018-08-17d01t14.flac:29f98e27eedd44c55b8bd9c1e1e81661
johngros2018-08-17d01t15.flac:857ffd06afc49c8307ecaf863661b513

length     expanded size    cdr  WAVE problems  fmt   ratio  filename
     1:21.01       14290796 B   ---   --   ---xx   flac  0.3037  johngros2018-08-17d01t01.flac
     8:36.32       91097708 B   ---   --   ---xx   flac  0.5482  johngros2018-08-17d01t02.flac
     6:43.59       71228012 B   ---   --   ---xx   flac  0.4663  johngros2018-08-17d01t03.flac
     5:39.05       59811404 B   ---   --   ---xx   flac  0.5087  johngros2018-08-17d01t04.flac
     7:02.68       74600780 B   ---   --   ---xx   flac  0.5152  johngros2018-08-17d01t05.flac
     6:41.06       70750556 B   ---   --   ---xx   flac  0.5191  johngros2018-08-17d01t06.flac
     4:28.70       47439884 B   ---   --   ---xx   flac  0.3889  johngros2018-08-17d01t07.flac
     5:38.36       59707916 B   ---   --   ---xx   flac  0.5274  johngros2018-08-17d01t08.flac
     1:50.28       19469900 B   ---   --   ---xx   flac  0.5375  johngros2018-08-17d01t09.flac
     4:34.49       48448892 B   ---   --   ---xx   flac  0.5666  johngros2018-08-17d01t10.flac
     0:59.19       10452332 B   ---   --   ---xx   flac  0.3781  johngros2018-08-17d01t11.flac
     5:11.04       54869852 B   ---   --   ---xx   flac  0.5114  johngros2018-08-17d01t12.flac
     6:51.31       72573356 B   ---   --   ---xx   flac  0.4844  johngros2018-08-17d01t13.flac
     7:35.33       80339660 B   ---   --   ---xx   flac  0.5174  johngros2018-08-17d01t14.flac
     0:55.54        9829052 B   ---   --   ---xx   flac  0.4050  johngros2018-08-17d01t15.flac
    74:09.45      784910100 B                            0.5015  (15 files)






More information about the bittorrent mailing list