[bittorrent] Toronzo Cannon Chenango Blues Fest Norwich, New York 8/17/2018 (Schoeps CCM4V'S FOB)

Automated Mailer noreply-bt.e at etree.org
Tue Aug 21 14:53:10 UTC 2018


Band:           Other
Torrent Name:   Toronzo Cannon Chenango Blues Fest Norwich, New York 8/17/2018 (Schoeps CCM4V'S FOB)
Uploaded by:    zmanatl
DB Link:        
Details:        http://bt.etree.org/details.php?id=601042

Contact the seeder at http://db.etree.org/zmanatl

If the link to this show does not work, it was probably removed for
being non-trade-friendly.

Description / text file:
-------------------------
Toronzo Cannon
Chenango Blues Fest
Norwich, New York
8/17/2018 

Source: Schoeps CCM4V's>Lunatec V2>Sound Devices 722 (24/44)
FOB/DFC/KFC/ZFC/AARP 45' From Stage, 7 1/2' High
DSP: Sound Devices 722>Sound Forge 10.0>CD Wave>flac(16)
ID3 Tagged In Foobar 2000
Recorded By: Z-Man
Seeded By: Z-Man 

Disc I

01 Greeting And Introduction By Eric
02 Strength To Survive >
03 Mrs. From Mississippi
04 Midlife Crisis
05 ?
06 When Will You Tell Him About Me?
07 Fine Seasoned Woman

Disc II

01 John The Conquer Root
02 They Don't Know Jam >
03 Third Stone From The Sun Jam >
04 John The Conquer Root 
05 Band Introductions
06 Walk It Off
07 Keep Me Hot In This Cold World
08 ? >
09 *?
Encore I:
10 Thank You/Banter
11 I Got A Big-Eyed Woman
Encore II:
12 Merchandise Banter
13 Bad Contract
14 Outro From Eric

toronzo2018-08-17d01t01.flac:ad3d5a1ac5662ac3489fd8fbe1524d49
toronzo2018-08-17d01t02.flac:2c19446effcc603bad03127fcb5576c9
toronzo2018-08-17d01t03.flac:fd77a22ad811412cbd2ef700bbfd937b
toronzo2018-08-17d01t04.flac:275179302dd5e8c6cb86a9eb48a38e64
toronzo2018-08-17d01t05.flac:a26543c1ee0fccc26d4f2dea5fc77cb5
toronzo2018-08-17d01t06.flac:84934997d545d0be914683cba2af1106
toronzo2018-08-17d01t07.flac:a3b26ef8752819c4c5875a383e4d4fae
toronzo2018-08-17d02t01.flac:316ebd38fa6d13b997f7182d88742183
toronzo2018-08-17d02t02.flac:3e6d62a65ac42bfe07789021dd10b22c
toronzo2018-08-17d02t03.flac:793590d9f21fccefb03fd84cf86b8f73
toronzo2018-08-17d02t04.flac:bbeb536477cca6a6bd2cf46925b96751
toronzo2018-08-17d02t05.flac:25208ca0a259e50b5870402cbed4cc43
toronzo2018-08-17d02t06.flac:03cbe3cd25ede81c4f5ebb968d873572
toronzo2018-08-17d02t07.flac:5fa45e7819fd0eb4cf37e08be69819ed
toronzo2018-08-17d02t08.flac:ae897471dcd6eb7630b86a9107033eef
toronzo2018-08-17d02t09.flac:a09a5d0ec1a446919c4a5d3acaf087dd
toronzo2018-08-17d02t10.flac:6e7e8d66f46d29adb809dabe662f487c
toronzo2018-08-17d02t11.flac:0b3f031a0c6b168208a1741226473859
toronzo2018-08-17d02t12.flac:79e946438ca26f0a7af18f7d9a9dbdbb
toronzo2018-08-17d02t13.flac:28eef2f507941750bd02a4f503a4789f
toronzo2018-08-17d02t14.flac:d2a4e0cfdb9d2f6fb4a0cf25c9280d9e

length     expanded size    cdr  WAVE problems  fmt   ratio  filename
     1:58.70       20979884 B   ---   --   ---xx   flac  0.3187  toronzo2018-08-17d01t01.flac
     7:24.31       78394556 B   ---   --   ---xx   flac  0.5179  toronzo2018-08-17d01t02.flac
     6:30.71       68963036 B   ---   --   ---xx   flac  0.5112  toronzo2018-08-17d01t03.flac
     6:40.56       70691756 B   ---   --   ---xx   flac  0.4774  toronzo2018-08-17d01t04.flac
     5:57.39       63066572 B   ---   --   ---xx   flac  0.4757  toronzo2018-08-17d01t05.flac
    10:30.38      111221420 B   ---   --   ---xx   flac  0.4411  toronzo2018-08-17d01t06.flac
     4:11.08       44295260 B   ---   --   ---xx   flac  0.4716  toronzo2018-08-17d01t07.flac
     9:28.68      100355180 B   ---   --   ---xx   flac  0.5381  toronzo2018-08-17d02t01.flac
     1:04.41       11386076 B   ---   --   ---xx   flac  0.6026  toronzo2018-08-17d02t02.flac
     0:43.53        7709900 B   ---   --   ---xx   flac  0.5954  toronzo2018-08-17d02t03.flac
     1:25.21       15043436 B   ---   --   ---xx   flac  0.5610  toronzo2018-08-17d02t04.flac
     1:02.32       11012108 B   ---   --   ---xx   flac  0.4122  toronzo2018-08-17d02t05.flac
     7:29.67       79361228 B   ---   --   ---xx   flac  0.4822  toronzo2018-08-17d02t06.flac
    10:43.20      113472284 B   ---   --   ---xx   flac  0.4693  toronzo2018-08-17d02t07.flac
     4:30.21       47677436 B   ---   --   ---xx   flac  0.4664  toronzo2018-08-17d02t08.flac
     2:41.44       28503932 B   ---   --   ---xx   flac  0.5795  toronzo2018-08-17d02t09.flac
     0:42.42        7507628 B   ---   --   ---xx   flac  0.3456  toronzo2018-08-17d02t10.flac
     6:54.06       73043756 B   ---   --   ---xx   flac  0.4905  toronzo2018-08-17d02t11.flac
     0:43.69        7747532 B   ---   --   ---xx   flac  0.3201  toronzo2018-08-17d02t12.flac
     3:39.36       38716316 B   ---   --   ---xx   flac  0.5003  toronzo2018-08-17d02t13.flac
     1:00.20       10631084 B   ---   --   ---xx   flac  0.3921  toronzo2018-08-17d02t14.flac
    95:24.28     1009780380 B                            0.4846  (21 files)





More information about the bittorrent mailing list