[bittorrent] gd87-01-30.140919.sbd.cm.miller.t-flac16

Automated Mailer noreply-bt.e at etree.org
Mon Aug 20 11:23:50 UTC 2018


Band:           Grateful Dead
Torrent Name:   gd87-01-30.140919.sbd.cm.miller.t-flac16
Uploaded by:    germain
DB Link:        
Details:        http://bt.etree.org/details.php?id=601021

Contact the seeder at http://db.etree.org/germain

If the link to this show does not work, it was probably removed for
being non-trade-friendly.

Description / text file:
-------------------------
This is a tagged version of shnid: 140919

Grateful Dead
January 30, 1987
San Francisco Civic Auditorium 
San Francisco, CA

Recording Info:
SBD > Cassette Master (TDK SA-X90)

Transfer Info:
Cassette Master (Nakamichi CR-7A) > Tascam DA-3000 (DSF 1-bit/5.8 MHz) >
KORG AudioGate 4 > Adobe Audition CC2015 > Samplitude Pro X3 Suite > FLAC/24
(1 Disc FLAC)

All Transfers and Mastering By Charlie Miller
charliemiller87 at earthlink.net
January 21, 2018

Notes:
-- Two sets of masters were used to make this show complete
-- This file set is 16 bit
_______________________________________________________________________________________

--Set 1--
201-01 - Tuning
202-02 - Touch Of Grey
203-03 - New Minglewood Blues
204-04 - Candyman
205-05 - Me And My Uncle >
206-06 - Mexicali Blues
207-07 - When Push Comes To Shove
208-08 - Beat It On Down The Line >
209-09 - The Promised Land >
210-10 - China Cat Sunflower >
211-11 - I Know You Rider

--Set 2--
201-12 - Tuning
202-13 - Iko Iko >
203-14 - Man Smart (Woman Smarter)
204-15 - Ship Of Fools
205-16 - Estimated Prophet >
206-17 - Truckin' >
207-18 - Drums >
208-19 - The Other One >
209-20 - Wharf Rat >
210-21 - Throwing Stones >
211-22 - Not Fade Away

--Encore--
212-23 - Encore Break
213-24 - Not Fade Away >
215-25 - Brokedown Palace
_______________________________________________________________________________________

Tagging notes:
Show information is embedded within the header of each flac file.
It will display on any player capable of directly playing flac files.
If converted to wav during processing, all tags will be stripped, however
audio data will remain unaffected.
If you must transcode to a lossy format, do so directly Flac > Lossy.
Use ffp to validate audio integrity.
Md5 values will change if tagging is altered.
B. Proctor 6-12-2018
_______________________________________________________________________________________

SHNTOOL OUTPUT:    length     expanded size    cdr  WAVE problems  fmt   ratio  filename
     0:42.53        7533500 B   ---   --   ---xx   flac  0.4993  01 Tuning.flac
     6:23.34       67641212 B   ---   --   ---xx   flac  0.6515  02 Touch Of Grey.flac
     8:11.21       86661836 B   ---   --   ---xx   flac  0.6059  03 New Minglewood Blues.flac
     8:38.29       91443452 B   ---   --   ---xx   flac  0.5927  04 Candyman.flac
     2:46.16       29320076 B   ---   --   ---xx   flac  0.6393  05 Me And My Uncle.flac
     6:43.73       71260940 B   ---   --   ---xx   flac  0.5953  06 Mexicali Blues.flac
     6:28.26       68504396 B   ---   --   ---xx   flac  0.5958  07 When Push Comes To Shove.flac
     3:23.41       35905676 B   ---   --   ---xx   flac  0.6532  08 Beat It On Down The Line.flac
     3:58.26       42044396 B   ---   --   ---xx   flac  0.6385  09 Promised Land.flac
     5:06.65       54131324 B   ---   --   ---xx   flac  0.6171  10 China Cat Sunflower.flac
     5:20.01       56450396 B   ---   --   ---xx   flac  0.6230  11 I Know You Rider.flac
     1:42.16       18030476 B   ---   --   ---xx   flac  0.4723  12 Tuning.flac
     5:21.63       56772620 B   ---   --   ---xx   flac  0.6239  13 Iko Iko.flac
     6:56.18       73424780 B   ---   --   ---xx   flac  0.6026  14 Man Smart (Woman Smarter).flac
     9:17.73       98426540 B   ---   --   ---xx   flac  0.5776  15 Ship Of Fools.flac
    10:54.71      115532636 B   ---   --   ---xx   flac  0.6004  16 Estimated Prophet.flac
     9:02.07       95625308 B   ---   --   ---xx   flac  0.6153  17 Truckin'.flac
    10:43.34      113505212 B   ---   --   ---xx   flac  0.5258  18 Drums.flac
    10:15.56      108617756 B   ---   --   ---xx   flac  0.5506  19 The Other One.flac
     9:06.48       96427340 B   ---   --   ---xx   flac  0.6001  20 Wharf Rat.flac
     8:39.65       91704524 B   ---   --   ---xx   flac  0.6115  21 Throwing Stones.flac
     6:59.72       74080988 B   ---   --   ---xx   flac  0.6081  22 Not Fade Away.flac
     0:48.29        8535452 B   ---   --   ---xx   flac  0.4870  23 Encore Break.flac
     2:00.19       21212732 B   ---   --   ---xx   flac  0.5812  24 Not Fade Away.flac



More information about the bittorrent mailing list