[bittorrent] gd87-01-30.079526.nak100.koucky.gmb.t-flac16

Automated Mailer noreply-bt.e at etree.org
Mon Aug 20 11:19:12 UTC 2018


Band:           Grateful Dead
Torrent Name:   gd87-01-30.079526.nak100.koucky.gmb.t-flac16
Uploaded by:    germain
DB Link:        
Details:        http://bt.etree.org/details.php?id=601019

Contact the seeder at http://db.etree.org/germain

If the link to this show does not work, it was probably removed for
being non-trade-friendly.

Description / text file:
-------------------------
This is a tagged version of shnid:79526

Grateful Dead
01/30/1987
San Francisco Civic Center
San Francisco, CA  

Source:  Nakamichi 100s, taper's section > Sony D5 > Maxell MX90s.  Recorded by B.Koucky.
Transfer:  MAC playback on Nakamichi DR-2 > Presonus Firebox/Neutrik Input > firewire > 
XP Pro PC/Wavelab 5 (recorded as 24bit/96 KHz WAV) > Waves L3, rendered to 16/44.1 
using Waves IDR hi res CD dither settings > CDWAV 1.9 > FLAC (level 8 encoding).  
Digital transfer, rendering and FLAC encoding by C.Ladner.

Disc I - Set I
01  tuning
02  Touch of Grey
03  Minglewood Blues
04  Candyman
05  Me & My Uncle >
06  Mexicali Blues
07  When Push Comes to Shove >
08  Beat it on Down the Line >
09  Promised Land >
10  China Cat Sunflower >
11  I Know You Rider
Set II
12  Tuning
13  Iko Iko >
14  Woman Are Smarter
15  Ship Of Fools

Disc II - Set II
01  Estimated Prophet >
02  Truckin' >
03  Drums >
04  Space >
05  The Other One >
06  Wharf Rat >
07  Throwing Stones >
08  Not Fade Away
Encore
09  Brokedown Palace
___________________________________________________________________________________________ 

Tagging notes:
Show information is embedded within the header of each flac file. 
It will display on any player capable of directly playing flac 
files. If converted to wav during processing, all tags will be 
stripped, however audio data will remain unaffected. If you must 
transcode to a lossy format, do so directly Flac > Lossy.
Use ffp to validate audio integrity.
Md5 values will change if tagging is altered.
D.Frazer. 02-11-'13.
___________________________________________________________________________________________
SHNTOOL LEN OUTPUT:
    length     expanded size   cdr  WAVE problems filename
     0:42.48        7521740    ---   --   ---xx   gd1987-01-30d1t01.flac
     6:29.05       68631404    ---   --   ---xx   gd1987-01-30d1t02.flac
     8:03.68       85361180    ---   --   ---xx   gd1987-01-30d1t03.flac
     8:36.49       91137692    ---   --   ---xx   gd1987-01-30d1t04.flac
     2:45.18       29148380    ---   --   ---xx   gd1987-01-30d1t05.flac
     5:02.56       53404556    ---   --   ---xx   gd1987-01-30d1t06.flac
     6:05.10       64409564    ---   --   ---xx   gd1987-01-30d1t07.flac
     3:21.42       35555228    ---   --   ---xx   gd1987-01-30d1t08.flac
     3:56.70       41795084    ---   --   ---xx   gd1987-01-30d1t09.flac
     5:19.00       56271644    ---   --   ---xx   gd1987-01-30d1t10.flac
     5:07.28       54220700    ---   --   ---xx   gd1987-01-30d1t11.flac
     1:23.00       14641244    ---   --   ---xx   gd1987-01-30d1t12.flac
     5:17.44       56022332    ---   --   ---xx   gd1987-01-30d1t13.flac
     6:50.18       72366380    ---   --   ---xx   gd1987-01-30d1t14.flac
     9:09.65       96996524    ---   --   ---xx   gd1987-01-30d1t15.flac
    10:45.22      113829788    ---   --   ---xx   gd1987-01-30d2t01.flac
     7:13.33       76458860    ---   --   ---xx   gd1987-01-30d2t02.flac
    11:35.28      122663900    ---   --   ---xx   gd1987-01-30d2t03.flac
     4:52.59       51647612    ---   --   ---xx   gd1987-01-30d2t04.flac
     4:48.22       50854988    ---   --   ---xx   gd1987-01-30d2t05.flac
     8:55.33       94451660    ---   --   ---xx   gd1987-01-30d2t06.flac
     8:27.04       89444252    ---   --   ---xx   gd1987-01-30d2t07.flac
     7:56.63       84114620    ---   --   ---xx   gd1987-01-30d2t08.flac
     6:27.23       68320940    ---   --   ---xx   gd1987-01-30d2t09.flac



More information about the bittorrent mailing list