[bittorrent] gd87-01-29.142028.m,tx.tobin.t-flac16

Automated Mailer noreply-bt.e at etree.org
Sun Aug 19 11:24:03 UTC 2018


Band:           Grateful Dead
Torrent Name:   gd87-01-29.142028.m,tx.tobin.t-flac16
Uploaded by:    germain
DB Link:        
Details:        http://bt.etree.org/details.php?id=601000

Contact the seeder at http://db.etree.org/germain

If the link to this show does not work, it was probably removed for
being non-trade-friendly.

Description / text file:
-------------------------
This is a re-tagged version of shnid: 142028

Grateful Dead
January 29, 1987
Civic Center, 
San Francisco, CA

SBD + AUD Matrix 2 Source Mix

Jerry Garcia - Guitar
Bob Weir - Guitar
Brent Mydland - Keyboards
Phil Lesh - Bass
Bill Kreutzmann - Drums
Mickey Hart - Drums
--------------------------------------------------------

Audio Information:
Original  SBD (shnid = 083284)

Recording Info:
SBD -> Cassette Master (Maxell MX90/Sony D5)

Transfer Info:
Cassette Master (Tascam 122mkII) -> Apogee MiniMe (24bit/48k) ->
Samplitude Professional v8.01 -> FLAC/16
(2 Discs Audio / 2 Discs FLAC)

All Transfers and Mastering By Charlie Miller
charliemiller87 at earthlink.net
February 7, 2007

Notes:
-- Thanks to Paul Scotton and Joani Walker for the tapes
--------------------------------------------------------

Original  AUD (shnid = 79467)

Source:  
Nakamichi 100s, taper's section > Sony D5 > Maxell MX90s.  
Recorded by B.Koucky.

Transfer:  
MAC playback on Nakamichi DR-2 > Presonus Firebox/Neutrik Input > firewire > 
XP Pro PC/Wavelab 5 (recorded as 24bit/96 KHz WAV) > Waves L3, rendered to 16/44.1 
using Waves IDR hi res CD dither settings > CDWAV 1.9 > FLAC (level 8 encoding).  
Digital transfer, rendering and FLAC encoding by C.Ladner.
---------------------------------------------------------
- Mixed by kevtobin at yahoo.com
- FLAC conversion 22-MAY-2018 - Trader Little Helper
- Tagged 22-MAY-2018 - Tag&Rename
---------------------------------------------------------
Brokedown House Production
______________________________________________________________________________________

--Set 1--
101-d1t01 - Funiculi Funicula/Tico Tico Tuning
102-d1t02 - Hell In A Bucket ->
103-d1t03 - Sugaree
104-d1t04 - El Paso
105-d1t05 - Loser
106-d1t06 - Little Red Rooster
107-d1t07 - Brown Eyed Women
108-d1t08 - Cassidy ->
109-d1t09 - Don't Ease Me In

--Set 2--
201-d2t01 - Scarlet Begonias ->
202-d2t02 - Fire On The Mountain
203-d2t03 - Looks Like Rain ->
204-d2t04 - Terrapin Station ->
205-d2t05 - Drums ->
206-d2t06 - I Need A Miracle ->
207-d2t07 - Stella Blue ->
208-d2t08 - Goin' Down The Road Feeling Bad ->
209-d2t09 - Johnny B. Goode

--Encore--
211-d2t10 - It's All Over Now, Baby Blue
______________________________________________________________________________________

Tagging notes:
Show information is embedded within the header of each flac file.
It will display on any player capable of directly playing flac files.
If converted to wav during processing, all tags will be stripped, however
audio data will remain unaffected.
If you must transcode to a lossy format, do so directly Flac > Lossy.
Use ffp to validate audio integrity.
Md5 values will change if tagging is altered.
B. Proctor 6-12-2018
______________________________________________________________________________________

    
length     expanded size    cdr  WAVE problems  fmt   ratio  filename
     5:05.35       53884364 B   ---   --   -----    wav  1.0000  gd1987-01-29d1t01.wav
     6:16.64       66476972 B   ---   --   -----    wav  1.0000  gd1987-01-29d1t02.wav
     9:30.64      100698572 B   ---   --   -----    wav  1.0000  gd1987-01-29d1t03.wav
     5:52.62       62238668 B   ---   --   -----    wav  1.0000  gd1987-01-29d1t04.wav
     7:50.44       83011532 B   ---   --   -----    wav  1.0000  gd1987-01-29d1t05.wav
    10:52.30      115083404 B   ---   --   -----    wav  1.0000  gd1987-01-29d1t06.wav
     6:18.42       66778028 B   ---   --   -----    wav  1.0000  gd1987-01-29d1t07.wav
     5:38.04       59632652 B   ---   --   -----    wav  1.0000  gd1987-01-29d1t08.wav
     3:33.14       37606172 B   ---   --   -----    wav  1.0000  gd1987-01-29d1t09.wav
     8:40.49       91843292 B   ---   --   -----    wav  1.0000  gd1987-01-29d2t01.wav
    10:45.34      113858012 B   ---   --   -----    wav  1.0000  gd1987-01-29d2t02.wav
     8:11.69       86774732 B   ---   --   -----    wav  1.0000  gd1987-01-29d2t03.wav
    11:57.37      126565868 B   ---   --   -----    wav  1.0000  gd1987-01-29d2t04.wav
     8:47.26       93023996 B   ---   --   -----    wav  1.0000  gd1987-01-29d2t05.wav
     3:57.60       41947964 B   ---   --   -----    wav  1.0000  gd1987-01-29d2t06.wav
     7:40.54       81271052 B   ---   --   -----    wav  1.0000  gd1987-01-29d2t07.wav
     6:00.08       63522860 B   ---   --   -----    wav  1.0000  gd1987-01-29d2t08.wav
     4:31.59       47943212 B   ---   --   -----    wav  1.0000  gd1987-01-29d2t09.wav
     8:00.14       84704972 B   ---   --   -----    wav  1.0000  gd1987-01-29d2t10.wav
   139:32.19     1476866324 B                            1.0000  (19 files)




More information about the bittorrent mailing list