[bittorrent] gd87-01-29.140788.sbd-UltraMatrix.cm.miller.t-flac16

Automated Mailer noreply-bt.e at etree.org
Sun Aug 19 11:21:45 UTC 2018


Band:           Grateful Dead
Torrent Name:   gd87-01-29.140788.sbd-UltraMatrix.cm.miller.t-flac16
Uploaded by:    germain
DB Link:        
Details:        http://bt.etree.org/details.php?id=600999

Contact the seeder at http://db.etree.org/germain

If the link to this show does not work, it was probably removed for
being non-trade-friendly.

Description / text file:
-------------------------
This is a tagged version of shind: 140788

Grateful Dead 
January 29, 1987
San Francisco Civic Auditorium  
San Francisco, CA

Recording Info:
UltraMatrix SBD > Cassette Master (TDK MA-R90)

Transfer Info:
Cassette Master (Nakamichi CR-7A) > Tascam DA-3000 (DSF 1-bit/5.8 MHz) >
KORG AudioGate 4 > Samplitude Pro X3 Suite > FLAC/24
(1 Disc FLAC)

All Transfers and Mastering By Charlie Miller
charliemiller87 at earthlink.net
January 15, 2018

Notes:
-- Two sets of masters were used to make this show complete
-- The ambient mics are tunred on at 1:06 of Hell In A Bucket
-- This file set is 16 bit
________________________________________________________________________________________

--Set 1--
101-01 - Tuning
102-02 - Hell In A Bucket >
103-03 - Sugaree
104-04 - El Paso
105-05 - Loser
106-06 - Little Red Rooster
107-07 - Brown Eyed Women
108-08 - Cassidy >
109-09 - Don't Ease Me In

--Set 2--
201-10 - Tuning
202-11 - Scarlet Begonias >
203-12 - Fire On The Mountain
204-13 - Looks Like Rain >
205-14 - Terrapin Station >
206-15 - Drums >
207-16 - I Need A Miracle >
208-17 - Stella Blue >
209-18 - Goin' Down The Road Feeling Bad >
210-19 - Johnny B. Goode

--Encore--
211-20 - Encore Break
212-21 - It's All Over Now, Baby Blue
________________________________________________________________________________________

Tagging notes:
Show information is embedded within the header of each flac file.
It will display on any player capable of directly playing flac files.
If converted to wav during processing, all tags will be stripped, however
audio data will remain unaffected.
If you must transcode to a lossy format, do so directly Flac > Lossy.
Use ffp to validate audio integrity.
Md5 values will change if tagging is altered.
B. Proctor 6-12-2018
________________________________________________________________________________________

SHNTOOL OUTPUT:
    length     expanded size    cdr  WAVE problems  fmt   ratio  filename
     5:22.32       56876108 B   ---   --   ---xx   flac  0.4482  01 Tuning.flac
     6:13.54       65924252 B   ---   --   ---xx   flac  0.6572  02 Hell In A Bucket.flac
     9:23.59       99452012 B   ---   --   ---xx   flac  0.6556  03 Sugaree.flac
     5:49.64       61714172 B   ---   --   ---xx   flac  0.6260  04 El Paso.flac
     7:45.54       82153052 B   ---   --   ---xx   flac  0.6517  05 Loser.flac
    10:08.30      107321804 B   ---   --   ---xx   flac  0.6327  06 Little Red Rooster.flac
     6:14.14       66006572 B   ---   --   ---xx   flac  0.6400  07 Brown Eyed Women.flac
     5:34.17       58957628 B   ---   --   ---xx   flac  0.6632  08 Cassidy.flac
     3:45.21       39739436 B   ---   --   ---xx   flac  0.6678  09 Don't Ease Me In.flac
     0:26.08        4605260 B   ---   --   ---xx   flac  0.5322  10 Tuning.flac
     8:09.37       86346668 B   ---   --   ---xx   flac  0.6605  11 Scarlet Begonias.flac
    10:30.40      111226124 B   ---   --   ---xx   flac  0.6659  12 Fire On The Mountain.flac
     8:11.19       86657132 B   ---   --   ---xx   flac  0.6350  13 Looks Like Rain.flac
    11:49.39      125159372 B   ---   --   ---xx   flac  0.6346  14 Terrapin Station.flac
     8:42.04       92090252 B   ---   --   ---xx   flac  0.7049  15 Drums.flac
     4:01.03       42519500 B   ---   --   ---xx   flac  0.6603  16 I Need A Miracle.flac
     7:31.71       79723436 B   ---   --   ---xx   flac  0.5870  17 Stella Blue.flac
     5:57.09       62996012 B   ---   --   ---xx   flac  0.6811  18 Goin' Down The Road Feeling Bad.flac
     3:55.17       41494028 B   ---   --   ---xx   flac  0.6802  19 Johnny B Goode.flac
     2:25.74       25752092 B   ---   --   ---xx   flac  0.5618  20 Encore Break.flac
     8:14.35       87223964 B   ---   --   ---xx   flac  0.6162  21 It's All Over Now, Baby Blue.flac
   140:12.26     1483938876 B                            0.6396  (21 files)




More information about the bittorrent mailing list