[bittorrent] gd87-01-29.083284.sbd.cm.walker.scotton-miller.t-flac16

Automated Mailer noreply-bt.e at etree.org
Sun Aug 19 11:19:33 UTC 2018


Band:           Grateful Dead
Torrent Name:   gd87-01-29.083284.sbd.cm.walker.scotton-miller.t-flac16
Uploaded by:    germain
DB Link:        
Details:        http://bt.etree.org/details.php?id=600998

Contact the seeder at http://db.etree.org/germain

If the link to this show does not work, it was probably removed for
being non-trade-friendly.

Description / text file:
-------------------------
This is a tagged version of shnid:83284

Grateful Dead - January 29, 1987
Civic Center - San Francisco, CA

Recording Info:
SBD -> Cassette Master (Maxell MX90/Sony D5)

Transfer Info:
Cassette Master (Tascam 122mkII) -> Apogee MiniMe (24bit/48k) ->
Samplitude Professional v8.01 -> FLAC/16
(2 Discs Audio / 2 Discs FLAC)

All Transfers and Mastering By Charlie Miller
charliemiller87 at earthlink.net
February 7, 2007

Notes:
-- Thanks to Paul Scotton and Joani Walker for the tapes

Set 1:
d1t01 - Funiculi Funicula/Tico Tico Tuning
d1t02 - Hell In A Bucket ->
d1t03 - Sugaree
d1t04 - El Paso
d1t05 - Loser
d1t06 - Little Red Rooster
d1t07 - Brown Eyed Women
d1t08 - Cassidy ->
d1t09 - Don't Ease Me In

Set 2:
d2t01 - Scarlet Begonias ->
d2t02 - Fire On The Mountain
d2t03 - Looks Like Rain ->
d2t04 - Terrapin Station ->
d2t05 - Drums ->
d2t06 - I Need A Miracle ->
d2t07 - Stella Blue ->
d2t08 - Goin' Down The Road Feeling Bad ->
d2t09 - Johnny B. Goode

Encore:
d2t10 - It's All Over Now, Baby Blue
___________________________________________________________________________________________ 

Tagging notes:
Show information is embedded within the header of each flac file. 
It will display on any player capable of directly playing flac 
files. If converted to wav during processing, all tags will be 
stripped, however audio data will remain unaffected. If you must 
transcode to a lossy format, do so directly Flac > Lossy.
Use ffp to validate audio integrity.
Md5 values will change if tagging is altered.
D.Frazer. 11-28-'13.
___________________________________________________________________________________________

SHNTOOL OUTPUT:
    length     expanded size   cdr  WAVE problems filename
     5:22.22       56852588    ---   --   -----   gd87-01-29d1t01.wav
     6:16.47       66436988    ---   --   -----   gd87-01-29d1t02.wav
     9:28.57      100329308    ---   --   -----   gd87-01-29d1t03.wav
     5:53.33       62346860    ---   --   -----   gd87-01-29d1t04.wav
     7:43.07       81689708    ---   --   -----   gd87-01-29d1t05.wav
    10:52.03      115019900    ---   --   -----   gd87-01-29d1t06.wav
     6:18.38       66768620    ---   --   -----   gd87-01-29d1t07.wav
     5:37.61       59590316    ---   --   -----   gd87-01-29d1t08.wav
     3:31.21       37269836    ---   --   -----   gd87-01-29d1t09.wav
     8:48.13       93169820    ---   --   -----   gd87-01-29d2t01.wav
    10:38.48      112656140    ---   --   -----   gd87-01-29d2t02.wav
     8:16.70       87659084    ---   --   -----   gd87-01-29d2t03.wav
    11:57.14      126511772    ---   --   -----   gd87-01-29d2t04.wav
     8:41.10       91927964    ---   --   -----   gd87-01-29d2t05.wav
     4:00.29       42404252    ---   --   -----   gd87-01-29d2t06.wav
     7:38.35       80873564    ---   --   -----   gd87-01-29d2t07.wav
     6:00.26       63565196    ---   --   -----   gd87-01-29d2t08.wav
     5:17.29       55987052    ---   --   -----   gd87-01-29d2t09.wav
     7:55.19       83834732    ---   --   -----   gd87-01-29d2t10.wav
   140:17.57     1484893700 B                     (totals for 19 files)




More information about the bittorrent mailing list