[bittorrent] Mike Mizwinski Quartet Arrowhead Ranch And Retreat Parksville, New York 8/16/2018 (Schoeps CCM4V'S FOB)

Automated Mailer noreply-bt.e at etree.org
Fri Aug 17 13:26:58 UTC 2018


Band:           Other
Torrent Name:   Mike Mizwinski Quartet Arrowhead Ranch And Retreat Parksville, New York 8/16/2018 (Schoeps CCM4V'S FOB)
Uploaded by:    zmanatl
DB Link:        
Details:        http://bt.etree.org/details.php?id=600968

Contact the seeder at http://db.etree.org/zmanatl

If the link to this show does not work, it was probably removed for
being non-trade-friendly.

Description / text file:
-------------------------
Mike Mizwinski Quartet
Arrowhead Ranch And Retreat
Parksville, New York
8/16/2018 

Source: Schoeps CCM4V's>Lunatec V2>Sound Devices 722 (24/44)
FOB/DFC/KFC/ZFC/AARP 25' From Stage, 6 1/2' High
DSP: Sound Devices 722>Sound Forge 10.0>CD Wave>flac(16)
ID3 Tagged In Foobar 2000
Recorded By: Z-Man
Seeded By: Z-Man 

Disc I

01 Greeting And Introduction
02 Anyway
03 Virginia
04 Was A Time
05 Love Please Come Home
06 Sits And Giggles
07 The Pine Grove Stomp
08 The High Flyin' Days
09 That's What Love Will Make You Do

Mike Mizwinski - Guitar And Vocals
Mikey Borowsk - Keyboards And Vocals
Stephen Kurtz - Bass And Vocals
Jamie Novak - Drums

miz2018-08-15d01t01.flac:1f6aab915c8a01cfe3a226dd1f298308
miz2018-08-15d01t02.flac:96df4737025a3ae8e917b04cad4ea388
miz2018-08-15d01t03.flac:41c90e44d4fd0b1264d8785e3c622ca6
miz2018-08-15d01t04.flac:0d10fb9786922ef8815374486e7c1aa6
miz2018-08-15d01t05.flac:876a44583d9a86946a15fa45d47faefc
miz2018-08-15d01t06.flac:75b2c7cc1a512d0ca9560f34756cb468
miz2018-08-15d01t07.flac:ec1785382b1f974b19c2b96453edac46
miz2018-08-15d01t08.flac:7fa7a5f96f8bf9b12afcfa3399d0a6b8
miz2018-08-15d01t09.flac:07ea0f0df7828be96bff403518f68545

 length     expanded size    cdr  WAVE problems  fmt   ratio  filename
     1:38.31       17360156 B   ---   --   ---xx   flac  0.3375  miz2018-08-15d01t01.flac
     7:22.53       78093500 B   ---   --   ---xx   flac  0.4883  miz2018-08-15d01t02.flac
     8:48.20       93186284 B   ---   --   ---xx   flac  0.5222  miz2018-08-15d01t03.flac
     4:27.09       47120012 B   ---   --   ---xx   flac  0.4974  miz2018-08-15d01t04.flac
     5:40.01       59978396 B   ---   --   ---xx   flac  0.5038  miz2018-08-15d01t05.flac
    10:03.53      106493900 B   ---   --   ---xx   flac  0.5546  miz2018-08-15d01t06.flac
     5:03.47       53559788 B   ---   --   ---xx   flac  0.5382  miz2018-08-15d01t07.flac
     6:47.28       71860700 B   ---   --   ---xx   flac  0.5249  miz2018-08-15d01t08.flac
    10:18.62      109161068 B   ---   --   ---xx   flac  0.5156  miz2018-08-15d01t09.flac
    60:10.04      636813804 B                            0.5154  (9 files)






More information about the bittorrent mailing list