[bittorrent] gd86-12-31.142303.fob-schoeps.oade.jacobs-miller-clugston.t-flac16

Automated Mailer noreply-bt.e at etree.org
Fri Aug 17 10:29:02 UTC 2018


Band:           Grateful Dead
Torrent Name:   gd86-12-31.142303.fob-schoeps.oade.jacobs-miller-clugston.t-flac16
Uploaded by:    germain
DB Link:        
Details:        http://bt.etree.org/details.php?id=600966

Contact the seeder at http://db.etree.org/germain

If the link to this show does not work, it was probably removed for
being non-trade-friendly.

Description / text file:
-------------------------
This is a tagged version of shnid: 142303

Grateful Dead 
Henry J. Kaiser Convention Center  
Oakland, CA
Wednesday December 31st, 1986

Source Info:
1st Set: Oade's Master (FOB) Audience PCM; Schoeps CMC4/MK41mics > Oade M118 > Oade modified Sony PCM-F1
2nd Set: Oade's Master (FOB) Audience PCM; (2) Schoeps CMC4/MK41mics + (1) CMC4/MK4 center fill > 
         Oade M118 > Oade modified Sony PCM-F1

Transfer Info:
Master Oade PCM > Sek'd Prodif > Samplitude (.wav 16-bit/44.1k)> hard disk > Adobe Audition 3.0 > TLH flac16

Notes:
- Thanks to the Oade brothers and crew for their master recording(s), as well as the transfer to hard disk
- Thanks to Blake Jacobs for the hard disk
- Thanks to Charlie Miller for coordinating this effort
- Usual fireworks/pops throughout, mostly at the beginning of the 2nd Set. 
  Couple of mic bumps thrown in for good measure.
- Outstanding capture, imo

Mastered by Scott Clugston
June 13, 2018 
____________________________________________________________________________________________________________ 

--Set One--
101-t01 - Crowd
102-t02 - Jack Straw >
103-t03 - Sugaree
104-t04 - Me And My Uncle >
105-t05 - Mexicali Blues
106-t06 - Candyman
107-t07 - Desolation Row
108-t08 - US Blues

--Set Two--
201-t09 - New Year's Countdown >
202-t10 - Touch Of Grey >
203-t11 - Let It Grow 
204-t12 - Black Muddy River >
205-t13 - Samson And Delilah
206-t14 - Terrapin Station >
207-t15 - Drums >
208-t16 - Space >
209-t17 - Wharf Rat >
210-t18 - Goin' Down The Road Feeling Bad >
211-t19 - Turn On Your Lovelight

--Set Three / Encores--
301-t20 - Crowd
302-t21 - Gimme Some Lovin' >
303-t22 - When Push Comes To Shove
304-t23 - Box Of Rain
305-t24 - In The Midnight Hour >
306-t25 - Brokedown Palace
____________________________________________________________________________________________________________

Tagging notes:
Show information is embedded within the header of each flac file.
It will display on any player capable of directly playing flac files.
If converted to wav during processing, all tags will be stripped, 
however audio data will remain unaffected.
If you must transcode to a lossy format, do so directly Flac > Lossy.
Use ffp to validate audio integrity.
Md5 values will change if tagging is altered.
B. Proctor 06-28-2018
____________________________________________________________________________________________________________


    length     expanded size    cdr  WAVE problems  fmt   ratio  filename
     6:06.40       64656524 B   ---   --   ---xx   flac  0.4905  gd86-12-31 t01 Crowd.flac
     5:27.23       57736940 B   ---   --   ---xx   flac  0.5894  gd86-12-31 t02 Jack Straw.flac
    11:08.49      117950492 B   ---   --   ---xx   flac  0.5776  gd86-12-31 t03 Sugaree.flac
     3:04.22       32509388 B   ---   --   ---xx   flac  0.5877  gd86-12-31 t04 Me & My Uncle.flac
     5:49.49       61678892 B   ---   --   ---xx   flac  0.5611  gd86-12-31 t05 Mexicali Blues.flac
     6:57.69       73721132 B   ---   --   ---xx   flac  0.5554  gd86-12-31 t06 Candyman.flac
    11:55.19      126170732 B   ---   --   ---xx   flac  0.5820  gd86-12-31 t07 Desolation Row.flac
     5:39.55       59929004 B   ---   --   ---xx   flac  0.6081  gd86-12-31 t08 US Blues.flac
     4:45.72       50443388 B   ---   --   ---xx   flac  0.5829  gd86-12-31 t09 New Year's Countdown.flac
     6:05.52       64508348 B   ---   --   ---xx   flac  0.6535  gd86-12-31 t10 Touch Of Grey.flac
    12:02.18      127403180 B   ---   --   ---xx   flac  0.5837  gd86-12-31 t11 Let It Grow.flac
     6:25.70       68078684 B   ---   --   ---xx   flac  0.5518  gd86-12-31 t12 Black Muddy River.flac
     7:16.54       77037452 B   ---   --   ---xx   flac  0.6176  gd86-12-31 t13 Samson & Delilah.flac
    14:10.38      150029420 B   ---   --   ---xx   flac  0.5563  gd86-12-31 t14 Terrapin Station.flac
    10:17.13      108869420 B   ---   --   ---xx   flac  0.5021  gd86-12-31 t15 Drums.flac
     9:35.63      101578220 B   ---   --   ---xx   flac  0.4322  gd86-12-31 t16 Space.flac
    10:03.35      106451564 B   ---   --   ---xx   flac  0.5287  gd86-12-31 t17 Wharf Rat.flac
     6:45.21       71491436 B   ---   --   ---xx   flac  0.5967  gd86-12-31 t18 Goin' Down The Road Feeling Bad.flac
     5:52.67       62250428 B   ---   --   ---xx   flac  0.5956  gd86-12-31 t19 Turn On Your Lovelight.flac
     2:25.06       25592156 B   ---   --   ---xx   flac  0.5019  gd86-12-31 t20 Crowd.flac
     4:57.37       52477868 B   ---   --   ---xx   flac  0.5858  gd86-12-31 t21 Gimme Some Lovin'.flac
     4:45.16       50311676 B   ---   --   ---xx   flac  0.6115  gd86-12-31 t22 When Push Comes To Shove.flac
     5:24.69       57315932 B   ---   --   ---xx   flac  0.5873  gd86-12-31 t23 Box Of Rain.flac
     4:34.70       48498284 B   ---   --   ---xx   flac  0.6033  gd86-12-31 t24 In The Midnight Hour.flac
     6:36.19       69899132 B   ---   --   ---xx   flac  0.5169  gd86-12-31 t25 Brokedown Palace.flac
   178:14.71     1886589692 B                            0.5624  (25 files)

No errors occured.



More information about the bittorrent mailing list