[bittorrent] gd86-12-31.140822.sbd-UltraMatrix.gans-niller-clugston.t-flac16

Automated Mailer noreply-bt.e at etree.org
Fri Aug 17 10:25:57 UTC 2018


Band:           Grateful Dead
Torrent Name:   gd86-12-31.140822.sbd-UltraMatrix.gans-niller-clugston.t-flac16
Uploaded by:    germain
DB Link:        
Details:        http://bt.etree.org/details.php?id=600965

Contact the seeder at http://db.etree.org/germain

If the link to this show does not work, it was probably removed for
being non-trade-friendly.

Description / text file:
-------------------------
This is a tagged version of shnid: 140822

Grateful Dead
Henry J. Kaiser Convention Center
Oakland, CA
Wednesday December 31, 1986

Recording Info: 
Master UltraMatrix PCM  

Transfer Info: 
PCM (Sony SLV-M20HF)> Sony PCM-601ESD > Behringer Ultramatch Pro > Tascam DA-3000(wav 16-bit/44.1k)> Adobe Audition > TLH flac16

Notes:
- Thanks to David Gans for the master UltraMatrix PCM source
- Thanks to Charlie Miller for the transfer
- Typical of a New Year's show, pops throughout, especially at the beginning of the 2nd set

Mastered by Scott Clugston
January 22, 2018

Set 1:
t01 - Tuning
t02 - Jack Straw >
t03 - Sugaree
t04 - Me And My Uncle >
t05 - Mexicali Blues
t06 - Candyman
t07 - Desolation Row
t08 - U.S. Blues

Set 2:
t09 - New Years Countdown >
t10 - Touch Of Grey >
t11 - Let It Grow
t12 - Black Muddy River >
t13 - Samson And Delilah
t14 - Terrapin Station >
t15 - Drums >
t16 - Space >
t17 - Wharf Rat >
t18 - Goin' Down The Road Feeling Bad >
t19 - Turn On Your Lovelight

Set 3:
t20 - Tuning
t21 - Gimme Some Lovin' >
t22 - When Push Comes To Shove
t23 - Box Of Rain
t24 - In The Midnight Hour >
t25 - Brokedown Palace

Tagging notes:
Show information is embedded within the header of each flac file. 
It will display on any player capable of directly playing flac files. 
If converted to wav during processing, all tags will be stripped, 
however audio data will remain unaffected. 
If you must transcode to a lossy format, do so directly Flac > Lossy.
Use ffp to validate audio integrity.
Md5 values will change if tagging is altered.
A Mills 1/27/18

    length     expanded size    cdr  WAVE problems  fmt   ratio  filename
     3:01.18       31970780 B   ---   --   ---xx   flac  0.4983  gd86-12-31 t01 Tuning.flac
     5:27.42       57781628 B   ---   --   ---xx   flac  0.6106  gd86-12-31 t02 Jack Straw.flac
    11:08.57      117969308 B   ---   --   ---xx   flac  0.5937  gd86-12-31 t03 Sugaree.flac
     3:05.07       32650508 B   ---   --   ---xx   flac  0.6008  gd86-12-31 t04 Me & My Uncle.flac
     5:49.52       61685948 B   ---   --   ---xx   flac  0.5715  gd86-12-31 t05 Mexicali Blues.flac
     6:58.00       73735244 B   ---   --   ---xx   flac  0.5716  gd86-12-31 t06 Candyman.flac
    11:56.70      126467084 B   ---   --   ---xx   flac  0.5965  gd86-12-31 t07 Desolation Row.flac
     5:38.47       59733788 B   ---   --   ---xx   flac  0.6216  gd86-12-31 t08 US Blues.flac
    12:03.08      127556060 B   ---   --   ---xx   flac  0.5069  gd86-12-31 t09 New Years Countdown.flac
     6:01.07       63696908 B   ---   --   ---xx   flac  0.5942  gd86-12-31 t10 Touch Of Grey.flac
    12:04.62      127859468 B   ---   --   ---xx   flac  0.5565  gd86-12-31 t11 Let It Grow.flac
     6:23.35       67643564 B   ---   --   ---xx   flac  0.5660  gd86-12-31 t12 Black Muddy River.flac
     7:15.63       76882220 B   ---   --   ---xx   flac  0.6171  gd86-12-31 t13 Samson & Delilah.flac
    14:11.07      150132908 B   ---   --   ---xx   flac  0.5547  gd86-12-31 t14 Terrapin Station.flac
    10:21.60      109685564 B   ---   --   ---xx   flac  0.4968  gd86-12-31 t15 Drums.flac
     9:36.15      101641724 B   ---   --   ---xx   flac  0.4468  gd86-12-31 t16 Space.flac
    10:01.61      106159916 B   ---   --   ---xx   flac  0.5447  gd86-12-31 t17 Wharf Rat.flac
     6:46.57       71752508 B   ---   --   ---xx   flac  0.6011  gd86-12-31 t18 Goin' Down The Road Feeling Bad.flac
     5:40.20       60023084 B   ---   --   ---xx   flac  0.5950  gd86-12-31 t19 Turn On Your Lovelight.flac
     8:08.51       86203196 B   ---   --   ---xx   flac  0.4735  gd86-12-31 t20 Tuning.flac
     4:57.71       52557836 B   ---   --   ---xx   flac  0.6023  gd86-12-31 t21 Gimme Some Lovin'.flac
     4:45.25       50332844 B   ---   --   ---xx   flac  0.6105  gd86-12-31 t22 When Push Comes To Shove.flac
     5:25.60       57471164 B   ---   --   ---xx   flac  0.5871  gd86-12-31 t23 Box Of Rain.flac
     4:35.43       48611180 B   ---   --   ---xx   flac  0.5978  gd86-12-31 t24 In The Midnight Hour.flac
     7:35.48       80374940 B   ---   --   ---xx   flac  0.5140  gd86-12-31 t25 Brokedown Palace.flac
   189:01.11     2000579372 B                            0.5585  (25 files)

No errors occured.



More information about the bittorrent mailing list