[bittorrent] gd1983-08-31.142927.beyerm201.holbrook.flac2448

Automated Mailer noreply-bt.e at etree.org
Wed Aug 15 23:14:40 UTC 2018


Band:           Grateful Dead
Torrent Name:   gd1983-08-31.142927.beyerm201.holbrook.flac2448
Uploaded by:    mvernon
DB Link:        
Details:        http://bt.etree.org/details.php?id=600947

Contact the seeder at http://db.etree.org/mvernon

If the link to this show does not work, it was probably removed for
being non-trade-friendly.

Description / text file:
-------------------------
Grateful Dead
Date 1983-08-31
Silva Hall at Hult Center
Eugene OR

Set 1
d1t01 - Kesey Speaks
d1t02 - Alabama Getaway->
d1t03 - Greatest Story Ever Told
d1t04 - Dupree's Diamond Blues
d1t05 - Me & My Uncle->
d1t06 - Mexicali Blues
d1t07 - West L.A. Fadeaway
d1t08 - Hell In A Bucket      //
d1t09 - Althea
d1t10 - Cassidy->
d1t11 - Don't Ease Me In

Set 2
d2t01 - Cold Rain & Snow
d2t02 - Playin' In The Band->
d2t03 - China Doll->
d2t04 - Drums->
d2t05 - Space                   *
d2t06 - Truckin'->
d2t07 - Stella Blue->
d2t08 - Around & Around->
d2t09 - Good Lovin'
d2t10 - Encore1  U.S. Blues     **
d2t11 - Ken Kesey thank you's
d2t12 - Encore2  Satisfaction
d2t13 - 1812 overture  (Healy closing out the show testing the Meyer PA)

** not on tape- we stopped the tape deliberately because we were being knuckleheads and not thinking of the future!
*  user reports: Ken Kesey on harmonica, standing behind drums

Master: AUD MC Beyer M201's X-Y 5.5'up > Sony TCD5M no dolby
        Nakamichi ZX-C90 x 2
Location: 100 feet from stage, DFC (2 rows behind SBD)
Transfer: Nakamichi CR-5A (24/96) > Tascam DR680|SD > i7Windows7
          Audacity > cdwav editor > TLH flac level 8
          This is 24 bit copy
Mastered: Executive Crew Kyle Holbrook Chris Kidwell Tom Pinney
Transferred: Kyle Holbrook
===================================================================================================================
The tour story:
The closing night of the run. Somehow, we ran into two real orchestra tickets which, once inside, we traded with a nice couple whose seats were exactly 10 feet behind Dan Healy's head, 2 rows behind the soundboard. This show was the final night and the security had gotten on to the stub in ruse and so everyone was left scrambling for tickets and even the counterfeiting wasn't as reliable as the previous two nights (tiredness factor?). So with the nice taping location and more mellow than the other two nights in terem sof being able to leave the seats and such made for a nice experience. In all, this is the show I recall absorbing the quality of the venue. Ken Kesey came out onstage to speak before the show started, and was told to tell a joke. Then after the first encore, Ken came out and thanked many people and then thanked the audience and then the band came back onstage for a second encore and a fitting one- Satisfaction - for the overall tone of stuffiness through out the proceed
 ings. the crowd was appreciative, and even though I didn't see anyone dancing ON the seats, I did see plenty of aisle dancing, and we were grooving in the chairs behind the soundboard.

Overall I recall at the time I was a bit underwhelmed by the setlist selection, the short length of the shows, and something about all us heads being on our "best behavior" just didn't seem to make it into the top tier of my as of then 30 or so (runs of) shows. Certainly looking back on the experience, and listening to the tapes this is borne out. the extremely short first set first night. The laid back drums and space 2 of 3 nights and then just overall they didn't pull out any bust outs aside from Satisfaction, giving us one at the very end. Now, overall, the quality of their playing was pretty consistent all three nights, even tight by Dead standards. I probably had high expectations and for some reason, maybe the ticket hassles, maybe the short shows, maybe just being tired from almost 2 weeks on the road, but that is my main memory and take away of MY overall experience.

The acoustics of the venue were outstanding for sure. The attitude of the staff, production crew and venue was welcoming, and the town of Eugene won a fan in me. I made it back there several times over the years, many of them visiting and not just for shows.

- - - - -

    length     expanded size    cdr  WAVE problems  fmt   ratio  filename
     2:53.227      49889324 B   cxx   --   ---xx   flac  0.7521  gd1983-08-31beyerm201-24s1t01.flac
     5:24.227      93377324 B   cxx   --   ---xx   flac  0.7801  gd1983-08-31beyerm201-24s1t02.flac
     4:03.560      70145324 B   cxx   --   ---xx   flac  0.7843  gd1983-08-31beyerm201-24s1t03.flac
     7:24.000     127872044 B   cxx   --   ---xx   flac  0.7633  gd1983-08-31beyerm201-24s1t04.flac
     2:59.200      51609644 B   cxx   --   ---xx   flac  0.7663  gd1983-08-31beyerm201-24s1t05.flac
     5:17.133      91334444 B   cxx   --   ---xx   flac  0.7623  gd1983-08-31beyerm201-24s1t06.flac
     9:23.240     162213164 B   cxx   --   ---xx   flac  0.7658  gd1983-08-31beyerm201-24s1t07.flac
     5:39.933      97900844 B   cxx   --   ---xx   flac  0.7868  gd1983-08-31beyerm201-24s1t08.flac
     9:40.507     167185964 B   cxx   --   ---xx   flac  0.7704  gd1983-08-31beyerm201-24s1t09.flac
     6:14.107     107742764 B   cxx   --   ---xx   flac  0.7811  gd1983-08-31beyerm201-24s1t10.flac
     3:19.947      57584684 B   cxx   --   ---xx   flac  0.7890  gd1983-08-31beyerm201-24s1t11.flac
     6:19.493     109294124 B   cxx   --   ---xx   flac  0.7828  gd1983-08-31beyerm201-24s2t01.flac
    10:17.640     177880364 B   cxx   --   ---xx   flac  0.7726  gd1983-08-31beyerm201-24s2t02.flac
     9:55.427     171482924 B   cxx   --   ---xx   flac  0.7610  gd1983-08-31beyerm201-24s2t03.flac
     6:55.453     119650604 B   cxx   --   ---xx   flac  0.7526  gd1983-08-31beyerm201-24s2t04.flac
     5:49.213     100573484 B   cxx   --   ---xx   flac  0.7310  gd1983-08-31beyerm201-24s2t05.flac
     8:45.107     151230764 B   cxx   --   ---xx   flac  0.7780  gd1983-08-31beyerm201-24s2t06.flac
     9:17.653     160604204 B   cxx   --   ---xx   flac  0.7459  gd1983-08-31beyerm201-24s2t07.flac
     3:44.960      64788524 B   cxx   --   ---xx   flac  0.7815  gd1983-08-31beyerm201-24s2t08.flac
     9:18.600     160876844 B   cxx   --   ---xx   flac  0.7830  gd1983-08-31beyerm201-24s2t09.flac
     0:37.387      10767404 B   cxx   --   ---xx   flac  0.7155  gd1983-08-31beyerm201-24s2t10.flac
     7:11.147     124170284 B   cxx   --   ---xx   flac  0.7725  gd1983-08-31beyerm201-24s2t11.flac
     7:22.627     127476524 B   cxx   --   ---xx   flac  0.7914  gd1983-08-31beyerm201-24s2t12.flac
     1:56.406      33524942 B   cxx   --   ---xx   flac  0.8072  gd1983-08-31beyerm201-24s2t13.flac
   149:50.193    2589176514 B                            0.7703  (24 files)




More information about the bittorrent mailing list