[bittorrent] gd1983-08-31.142926.beyerm201.holbrook.flac1644

Automated Mailer noreply-bt.e at etree.org
Wed Aug 15 23:14:21 UTC 2018


Band:           Grateful Dead
Torrent Name:   gd1983-08-31.142926.beyerm201.holbrook.flac1644
Uploaded by:    mvernon
DB Link:        
Details:        http://bt.etree.org/details.php?id=600946

Contact the seeder at http://db.etree.org/mvernon

If the link to this show does not work, it was probably removed for
being non-trade-friendly.

Description / text file:
-------------------------
Grateful Dead
Date 1983-08-31
Silva Hall at Hult Center
Eugene OR

Set 1
d1t01 - Kesey Speaks
d1t02 - Alabama Getaway->
d1t03 - Greatest Story Ever Told
d1t04 - Dupree's Diamond Blues
d1t05 - Me & My Uncle->
d1t06 - Mexicali Blues
d1t07 - West L.A. Fadeaway
d1t08 - Hell In A Bucket      //
d1t09 - Althea
d1t10 - Cassidy->
d1t11 - Don't Ease Me In

Set 2
d2t01 - Cold Rain & Snow
d2t02 - Playin' In The Band->
d2t03 - China Doll->
d2t04 - Drums->
d2t05 - Space                   *
d2t06 - Truckin'->
d2t07 - Stella Blue->
d2t08 - Around & Around->
d2t09 - Good Lovin'
d2t10 - Encore1  U.S. Blues     **
d2t11 - Ken Kesey thank you's
d2t12 - Encore2  Satisfaction
d2t13 - 1812 overture  (Healy closing out the show testing the Meyer PA)

** not on tape- we stopped the tape deliberately because we were being knuckleheads and not thinking of the future!
*  user reports: Ken Kesey on harmonica, standing behind drums

Master: AUD MC Beyer M201's X-Y 5.5'up > Sony TCD5M no dolby
        Nakamichi ZX-C90 x 2
Location: 100 feet from stage, DFC (2 rows behind SBD)
Transfer: Nakamichi CR-5A (24/96) > Tascam DR680|SD > i7Windows7
          Audacity > cdwav editor > TLH flac level 8
          This is 16 bit copy
Mastered: Executive Crew Kyle Holbrook Chris Kidwell Tom Pinney
Transferred: Kyle Holbrook
===================================================================================================================
The tour story:
The closing night of the run. Somehow, we ran into two real orchestra tickets which, once inside, we traded with a nice couple whose seats were exactly 10 feet behind Dan Healy's head, 2 rows behind the soundboard. This show was the final night and the security had gotten on to the stub in ruse and so everyone was left scrambling for tickets and even the counterfeiting wasn't as reliable as the previous two nights (tiredness factor?). So with the nice taping location and more mellow than the other two nights in terms of being able to leave the seats and such made for a nice experience. In all, this is the show I recall absorbing the quality of the venue. Ken Kesey came out onstage to speak before the show started, and was told to tell a joke. Then after the first encore, Ken came out and thanked many people and then thanked the audience and then the band came back onstage for a second encore and a fitting one- Satisfaction - for the overall tone of stuffiness through out the proceedi
 ngs. the crowd was appreciative, and even though I didn't see anyone dancing ON the seats, I did see plenty of aisle dancing, and we were grooving in the chairs behind the soundboard.

Overall I recall at the time I was a bit underwhelmed by the setlist selection, the short length of the shows, and something about all us heads being on our "best behavior" just didn't seem to make it into the top tier of my as of then 30 or so (runs of) shows. Certainly looking back on the experience, and listening to the tapes this is borne out. the extremely short first set first night. The laid back drums and space 2 of 3 nights and then just overall they didn't pull out any bust outs aside from Satisfaction, giving us one at the very end. Now, overall, the quality of their playing was pretty consistent all three nights, even tight by Dead standards. I probably had high expectations and for some reason, maybe the ticket hassles, maybe the short shows, maybe just being tired from almost 2 weeks on the road, but that is my main memory and take away of MY overall experience.

The acoustics of the venue were outstanding for sure. The attitude of the staff, production crew and venue was welcoming, and the town of Eugene won a fan in me. I made it back there several times over the years, many of them visiting and not just for shows.

- - - - -

    length     expanded size    cdr  WAVE problems  fmt   ratio  filename
     2:53.17       30557228 B   ---   --   ---xx   flac  0.6262  gd1983-08-31beyerm201-16s1t01.flac
     5:24.17       57193628 B   ---   --   ---xx   flac  0.6788  gd1983-08-31beyerm201-16s1t02.flac
     4:03.42       42964028 B   ---   --   ---xx   flac  0.6859  gd1983-08-31beyerm201-16s1t03.flac
     7:24.00       78321644 B   ---   --   ---xx   flac  0.6521  gd1983-08-31beyerm201-16s1t04.flac
     2:59.15       31610924 B   ---   --   ---xx   flac  0.6573  gd1983-08-31beyerm201-16s1t05.flac
     5:17.10       55942364 B   ---   --   ---xx   flac  0.6506  gd1983-08-31beyerm201-16s1t06.flac
     9:23.18       99355580 B   ---   --   ---xx   flac  0.6561  gd1983-08-31beyerm201-16s1t07.flac
     5:39.70       59964284 B   ---   --   ---xx   flac  0.6885  gd1983-08-31beyerm201-16s1t08.flac
     9:40.38      102401420 B   ---   --   ---xx   flac  0.6620  gd1983-08-31beyerm201-16s1t09.flac
     6:14.08       65992460 B   ---   --   ---xx   flac  0.6791  gd1983-08-31beyerm201-16s1t10.flac
     3:19.71       35270636 B   ---   --   ---xx   flac  0.6919  gd1983-08-31beyerm201-16s1t11.flac
     6:19.37       66942668 B   ---   --   ---xx   flac  0.6825  gd1983-08-31beyerm201-16s2t01.flac
    10:17.48      108951740 B   ---   --   ---xx   flac  0.6655  gd1983-08-31beyerm201-16s2t02.flac
     9:55.32      105033308 B   ---   --   ---xx   flac  0.6465  gd1983-08-31beyerm201-16s2t03.flac
     6:55.34       73286012 B   ---   --   ---xx   flac  0.6332  gd1983-08-31beyerm201-16s2t04.flac
     5:49.16       61601276 B   ---   --   ---xx   flac  0.5981  gd1983-08-31beyerm201-16s2t05.flac
     8:45.08       92628860 B   ---   --   ---xx   flac  0.6740  gd1983-08-31beyerm201-16s2t06.flac
     9:17.49       98370092 B   ---   --   ---xx   flac  0.6220  gd1983-08-31beyerm201-16s2t07.flac
     3:44.72       39682988 B   ---   --   ---xx   flac  0.6797  gd1983-08-31beyerm201-16s2t08.flac
     9:18.45       98537084 B   ---   --   ---xx   flac  0.6822  gd1983-08-31beyerm201-16s2t09.flac
     0:37.29        6595052 B   ---   --   ---xx   flac  0.5737  gd1983-08-31beyerm201-16s2t10.flac
     7:11.11       76054316 B   ---   --   ---xx   flac  0.6627  gd1983-08-31beyerm201-16s2t11.flac
     7:22.47       78079388 B   ---   --   ---xx   flac  0.6962  gd1983-08-31beyerm201-16s2t12.flac
     1:56.30       20534044 B   -b-   --   ---xx   flac  0.7190  gd1983-08-31beyerm201-16s2t13.flac
   149:50.14     1585871024 B                            0.6619  (24 files)




More information about the bittorrent mailing list