[bittorrent] gd86-12-30.138007.sbd.cm.miller.t-flac16

Automated Mailer noreply-bt.e at etree.org
Wed Aug 15 10:45:05 UTC 2018


Band:           Grateful Dead
Torrent Name:   gd86-12-30.138007.sbd.cm.miller.t-flac16
Uploaded by:    germain
DB Link:        
Details:        http://bt.etree.org/details.php?id=600926

Contact the seeder at http://db.etree.org/germain

If the link to this show does not work, it was probably removed for
being non-trade-friendly.

Description / text file:
-------------------------
This is a tagged version of shnid: 138007

Grateful Dead - December 30, 1986
Henry J. Kaiser Convention Center - Oakland, CA

Recording Info:
SBD > Cassette Master (TDK MA-R90)

Transfer Info:
Cassette Master (Nakamichi CR-7A) > Tascam DA-3000 (DSF 1-bit/5.8 MHz) >
KORG AudioGate 4 > Samplitude Pro X3 Suite > FLAC/24
(1 Disc FLAC)

All Transfers and Mastering By Charlie Miller
charliemiller87 at earthlink.net
March 3, 2017

Notes:
-- Two sets of masters were used to make this show complete
-- Drums with Hamza El-Din and Jose Lorenzo
-- Iko Iko, Man Smart (Women Smarter) and Johnny B. Goode with The Neville Brothers
-- this is the 137978 24bit->16bit

Set 1:
01 - Tuning
02 - Hell In A Bucket
03 - Althea
04 - C.C. Rider
05 - Cumberland Blues
06 - My Brother Esau >
07 - When Push Comes To Shove
08 - Beat It On Down The Line >
09 - Greatest Story Ever Told
10 - Don't Ease Me In >
11 - The Music Never Stopped

Set 2:
12 - China Cat Sunflower >
13 - I Know You Rider
14 - Saint Of Circumstance
15 - Ship Of Fools
16 - Estimated Prophet >
17 - Eyes Of The World >
18 - Drums >
19 - Iko Iko >
20 - Man Smart (Woman Smarter) >
21 - Stella Blue >
22 - Throwing Stones >
23 - Not Fade Away

Encore:
24 - Encore Break
25 - Not Fade Away
26 - Johnny B. Goode

Tagging notes:
Show information is embedded within the header of each flac file. 
It will display on any player capable of directly playing flac files. 
If converted to wav during processing, all tags will be stripped, 
however audio data will remain unaffected. 
If you must transcode to a lossy format, do so directly Flac > Lossy.
Use ffp to validate audio integrity.
Md5 values will change if tagging is altered.
A Mills 5/23/17

SHNTOOL OUTPUT:
    length     expanded size    cdr  WAVE problems  fmt   ratio  filename
     1:31.60       16193564 B   ---   --   ---xx   flac  0.4487  01 Tuning.flac
     7:13.15       76416524 B   ---   --   ---xx   flac  0.6261  02 Hell In A Bucket.flac
     8:34.39       90761372 B   ---   --   ---xx   flac  0.6044  03 Althea.flac
     7:09.09       75696812 B   ---   --   ---xx   flac  0.6197  04 CC Rider.flac
     7:08.00       75499244 B   ---   --   ---xx   flac  0.5955  05 Cumberland Blues.flac
     4:18.48       45624140 B   ---   --   ---xx   flac  0.6305  06 My Brother Esau.flac
     5:53.11       62295116 B   ---   --   ---xx   flac  0.6115  07 When Push Comes To Shove.flac
     3:18.61       35070716 B   ---   --   ---xx   flac  0.6515  08 Beat It On Down The Line.flac
     4:05.12       43246268 B   ---   --   ---xx   flac  0.6246  09 Greatest Story Ever Told.flac
     3:27.63       36663020 B   ---   --   ---xx   flac  0.6442  10 Don't Ease Me In.flac
     7:13.15       76416524 B   ---   --   ---xx   flac  0.6396  11 The Music Never Stopped.flac
     5:00.05       52931804 B   ---   --   ---xx   flac  0.6239  12 China Cat Sunflower.flac
     5:43.15       60540524 B   ---   --   ---xx   flac  0.6284  13 I Know You Rider.flac
     6:49.05       72159404 B   ---   --   ---xx   flac  0.6551  14 Saint Of Circumstance.flac
     8:52.44       93948332 B   ---   --   ---xx   flac  0.5855  15 Ship Of Fools.flac
    10:43.71      113592236 B   ---   --   ---xx   flac  0.6246  16 Estimated Prophet.flac
     8:28.20       89658284 B   ---   --   ---xx   flac  0.6280  17 Eyes Of The World.flac
    19:07.30      202401404 B   ---   --   ---xx   flac  0.4962  18 Drums.flac
     6:40.33       70637660 B   ---   --   ---xx   flac  0.6599  19 Iko Iko.flac
     4:28.28       47341100 B   ---   --   ---xx   flac  0.6763  20 Man Smart (Woman Smarter).flac
     9:56.03      105141500 B   ---   --   ---xx   flac  0.5537  21 Stella Blue.flac
     9:11.37       97283468 B   ---   --   ---xx   flac  0.6125  22 Throwing Stones.flac
     7:30.18       79422380 B   ---   --   ---xx   flac  0.6001  23 Not Fade Away.flac
     1:33.04       16414652 B   ---   --   ---xx   flac  0.4614  24 Encore Break.flac
     0:56.31        9951356 B   ---   --   ---xx   flac  0.4742  25 Not Fade Away.flac
     3:54.44       41381132 B   ---   --   ---xx   flac  0.6401  26 Johnny B Goode.flac
   168:48.46     1786688536 B                            0.6017  (26 files)



More information about the bittorrent mailing list