[bittorrent] gd86-12-30.128691.mtx.nicksmix.flac16

Automated Mailer noreply-bt.e at etree.org
Wed Aug 15 10:41:30 UTC 2018


Band:           Grateful Dead
Torrent Name:   gd86-12-30.128691.mtx.nicksmix.flac16
Uploaded by:    germain
DB Link:        
Details:        http://bt.etree.org/details.php?id=600925

Contact the seeder at http://db.etree.org/germain

If the link to this show does not work, it was probably removed for
being non-trade-friendly.

Description / text file:
-------------------------
Grateful Dead
Henry J. Kaiser Convention Center
Oakland, California
December 30, 1986
With Hamza El Din, Jose Lorenzo and the Neville Brothers

Matrix mix of Shnid 81308(aud) and shnid 99638(sdb) with patches used from shnid 88983(aud)

Mixed by Nick Crump
Eugene, Oregon
May 2014

Shnid 88983 used as a patch source for 81308. Supplies:
  51 seconds between Hell In A Bucket and Althea (crowd noise)
  50 seconds between When Push Comes To Shove and Beat It On Down The Line (crowd noise)
  30 seconds during Don't ease Me In 
  2 seconds during Drums
  5:56 covering end of Drums and beginning of Ollin Arageed
  12 seconds near the end of Throwing Stones
Some gaps in audience tape remain between songs. Left as is to preserve the pace of the show. There will be some very quiet sections.

Source 1(audience): gd1986-12-30.nakcm304.suraci.beckham.sbeok.81308.flac16
  Source: *Nakamichi CM304's>Sony D5M
  Location: OTS Floor, Stand at 9 Feet
  Transfer: Nak CR5A>Lunatec V3(analog out)>722 at 24/96
  Editing: Adobe Audition 2.0 dither and resample 16Bit>Cdwav/tracking>flac16
  Tapers: *Don Beckham and Tony Suraci
  Transfer and upload by Tony Suraci
  * Thanks to Don for running my rig.
  Notes: This is the 16Bit version. 24 Bit is archived on DVDA.

Source 2(soundboard): gd1986-12-30.sbd.walker-scotton.miller.99638.sbeok.flac16
  Recording Info:
  SBD -> Cassette Master (Sony D5/TDK MX-XG90/Dolby B)
  Transfer Info:
  Cassette Master (Nakamichi DR-1/Dolby B) -> Sound Devices 744T (24bit/96k) ->
  Samplitude Professional v10.21 -> FLAC/16
  (3 Discs Audio / 2 Discs FLAC)
  All Transfers and Mastering By Charlie Miller
  charliemiller87 at earthlink.net
  June 19, 2009
  Patch Info:
  SBD -> Cassette Master -> Dat -> CD (shnid=6025) supplies:
  Drums (0:16 - 1:57)
  Throwing Stones (5:26 - 5:33)
  Notes:
  -- Set 2 is seamless
  -- Thanks to Paul Scotton and Joani Walker for the tapes
  -- Thanks to Joe B. Jones for his help pitch correcting the patch source

Patch Source(audience): gd1986-12-30.nak300.damico.88983.flac16
  taper : Joe D'Amico ''aka'' Joebeacon
  nak 300 mics w/ cp4 shotguns > sony d-5
  nak dragon tape deck > sony sbm1 > creative extigy soundcard > cool edit pro> flac frontend 

--Set 1--
101-d1t01 - Tuning
102-d1t02 - Hell in a Bucket
103-d1t03 - Althea
104-d1t04 - C.C. Rider
105-d1t05 - Cumberland Blues
106-d1t06 - My Brother Esau ->
107-d1t07 - When Push Comes To Shove
108-d1t08 - Beat It On Down the Line ->
109-d1t09 - Greatest Story Ever Told
110-d1t10 - Don't Ease Me In ->
111-d1t11 - The Music Never Stopped

--Set 2--
201-d2t01 - China Cat Sunflower ->
202-d2t02 - I Know You Rider
203-d2t03 - Saint Of Circumstance
204-d2t04 - Ship Of Fools
205-d2t05 - Estimated Prophet ->
206-d2t06 - Eyes of the World ->
207-d2t07 - Drums ->
208-d3t01 - Ollin Arageed* ->
209-d3t02 - Iko Iko** ->
210-d3t03 - Man Smart (Women Smarter)** ->
211-d3t04 - Stella Blue ->
212-d3t05 - Throwing Stones ->
213-d3t06 - Not Fade Away
214-d3t07 - Crowd Chant

--Encore--
215-d3t08 - Johnny B. Goode**

  * With Hamza El-Din & Jose Lorenzo
  ** With the Neville Brothers

Thanks to Tony Suraci, Don Beckham, Charlie Miller, Joani Walker, Paul Scotton and Joe D'Amico for providing the sources used in this mix.

    length     expanded size    cdr  WAVE problems  fmt   ratio  filename
     1:34.04       16591052 B   ---   --   ---xx   flac  0.5521  gd86-12-30d1t01.flac
     7:15.56       76865756 B   ---   --   ---xx   flac  0.6087  gd86-12-30d1t02.flac
     8:39.16       91589276 B   ---   --   ---xx   flac  0.5922  gd86-12-30d1t03.flac
     7:04.47       74904188 B   ---   --   ---xx   flac  0.6182  gd86-12-30d1t04.flac
     6:12.23       65674940 B   ---   --   ---xx   flac  0.6214  gd86-12-30d1t05.flac
     4:32.38       48070220 B   ---   --   ---xx   flac  0.6361  gd86-12-30d1t06.flac
     6:26.59       68229212 B   ---   --   ---xx   flac  0.6068  gd86-12-30d1t07.flac
     3:20.71       35447036 B   ---   --   ---xx   flac  0.6581  gd86-12-30d1t08.flac
     4:06.41       43490876 B   ---   --   ---xx   flac  0.6525  gd86-12-30d1t09.flac
     3:29.00       36867644 B   ---   --   ---xx   flac  0.6503  gd86-12-30d1t10.flac
     7:40.70       81308684 B   ---   --   ---xx   flac  0.6265  gd86-12-30d1t11.flac
     5:25.01       57332396 B   ---   --   ---xx   flac  0.6133  gd86-12-30d2t01.flac
     5:45.08       60876860 B   ---   --   ---xx   flac  0.6284  gd86-12-30d2t02.flac
     6:55.48       73318940 B   ---   --   ---xx   flac  0.6414  gd86-12-30d2t03.flac
     8:53.06       94035356 B   ---   --   ---xx   flac  0.5874  gd86-12-30d2t04.flac
    10:49.17      114523628 B   ---   --   ---xx   flac  0.6168  gd86-12-30d2t05.flac
     8:32.72       90486188 B   ---   --   ---xx   flac  0.6319  gd86-12-30d2t06.flac
     4:14.41       44902076 B   ---   --   ---xx   flac  0.5690  gd86-12-30d2t07.flac
    14:11.59      150255212 B   ---   --   ---xx   flac  0.5275  gd86-12-30d3t01.flac
     7:31.57       79690508 B   ---   --   ---xx   flac  0.6541  gd86-12-30d3t02.flac
     4:30.43       47729180 B   ---   --   ---xx   flac  0.6804  gd86-12-30d3t03.flac
    10:03.02      106373948 B   ---   --   ---xx   flac  0.5581  gd86-12-30d3t04.flac
     9:18.43       98532380 B   ---   --   ---xx   flac  0.6230  gd86-12-30d3t05.flac
     7:20.60       77757164 B   ---   --   ---xx   flac  0.6081  gd86-12-30d3t06.flac
     2:47.02       29463548 B   ---   --   ---xx   flac  0.5420  gd86-12-30d3t07.flac
     4:21.65       46193324 B   ---   --   ---xx   flac  0.6268  gd86-12-30d3t08.flac



More information about the bittorrent mailing list