[bittorrent] Ivan Neville's Dumpstaphunk Peach Music Festival Montage Mountain Peach Stage Scranton, Pennsylvania 7/22/2018 (Schoeps CCM4V'S FOB)

Automated Mailer noreply-bt.e at etree.org
Tue Aug 14 16:01:10 UTC 2018


Band:           Other
Torrent Name:   Ivan Neville's Dumpstaphunk Peach Music Festival Montage Mountain Peach Stage Scranton, Pennsylvania 7/22/2018   (Schoeps CCM4V'S FOB)
Uploaded by:    zmanatl
DB Link:        
Details:        http://bt.etree.org/details.php?id=600910

Contact the seeder at http://db.etree.org/zmanatl

If the link to this show does not work, it was probably removed for
being non-trade-friendly.

Description / text file:
-------------------------
Ivan Neville's Dumpstaphunk
Peach Music Festival
Montage Mountain
Peach Stage
Scranton, Pennsylvania
7/22/2018 

Source: Schoeps CCM4V's>Lunatec V2>Sound Devices 722 (24/44)
FOB/DFC/KFC/ZFC/AARP Section 102, Row U, Seat 7, 7' High
DSP: Sound Devices 722>Sound Forge 10.0>CD Wave>flac(16)
ID3 Tagged In Foobar 2000
Recorded By: Z-Man
Seeded By: Z-Man 

Disc I 

01 I Wish You Would
02 Let's Get At It
03 I'm Gonna Make It
04 Justice
05 Dumpstamental
06 *United Nations Stomp
07 Band Introductions
08 Up For The Down Stroke
09 Dancin' To The Truth

* With Brandon "Taz" Niederauer On Guitar

dumpstafunk2018-07-22d01t01.flac:b88c3b57342ecf1d9fce86306d54dbab
dumpstafunk2018-07-22d01t02.flac:ab05819ab48a7fa1c8c90a9db1e65fec
dumpstafunk2018-07-22d01t03.flac:17ea308e05735b992f34f6aaa0eae1e7
dumpstafunk2018-07-22d01t04.flac:2728aa6d72e704dab2d994d9b3f43fe8
dumpstafunk2018-07-22d01t05.flac:428f34515a7b80da88c8a46304c7232a
dumpstafunk2018-07-22d01t06.flac:21a686796e64bd448dfb87104dc853eb
dumpstafunk2018-07-22d01t07.flac:459632b7cf187c63aff1e3a8f8870324
dumpstafunk2018-07-22d01t08.flac:e369915ae275fb098d3ee9f8d4352eec
dumpstafunk2018-07-22d01t09.flac:a2a94f6646b3f3db8f5128ba3128f573

 length     expanded size    cdr  WAVE problems  fmt   ratio  filename
     7:27.29       78919052 B   ---   --   ---xx   flac  0.5425  dumpstafunk2018-07-22d01t01.flac
     5:22.08       56819660 B   ---   --   ---xx   flac  0.5324  dumpstafunk2018-07-22d01t02.flac
     6:17.06       66516956 B   ---   --   ---xx   flac  0.5431  dumpstafunk2018-07-22d01t03.flac
     7:31.26       79617596 B   ---   --   ---xx   flac  0.5493  dumpstafunk2018-07-22d01t04.flac
     8:53.44       94124732 B   ---   --   ---xx   flac  0.5255  dumpstafunk2018-07-22d01t05.flac
     8:10.01       86438396 B   ---   --   ---xx   flac  0.5508  dumpstafunk2018-07-22d01t06.flac
     0:47.00        8290844 B   ---   --   ---xx   flac  0.4011  dumpstafunk2018-07-22d01t07.flac
     7:34.67       80243228 B   ---   --   ---xx   flac  0.5313  dumpstafunk2018-07-22d01t08.flac
     6:21.63       67356620 B   ---   --   ---xx   flac  0.5139  dumpstafunk2018-07-22d01t09.flac
    58:25.19      618327084 B                            0.5346  (9 files)






More information about the bittorrent mailing list