[bittorrent] Devon Allman Project Peach Music Festival Montage Mountain Peach Stage Scranton, Pennsylvania 7/21/2018 (Schoeps CCM4V'S FOB)

Automated Mailer noreply-bt.e at etree.org
Tue Aug 14 15:30:09 UTC 2018


Band:           Other
Torrent Name:   Devon Allman Project Peach Music Festival Montage Mountain Peach Stage Scranton, Pennsylvania 7/21/2018 (Schoeps CCM4V'S FOB)
Uploaded by:    zmanatl
DB Link:        
Details:        http://bt.etree.org/details.php?id=600908

Contact the seeder at http://db.etree.org/zmanatl

If the link to this show does not work, it was probably removed for
being non-trade-friendly.

Description / text file:
-------------------------
Devon Allman Project
Peach Music Festival
Montage Mountain
Peach Stage
Scranton, Pennsylvania
7/21/2018 

Source: Schoeps CCM4V's>Lunatec V2>Sound Devices 722 (24/44)
FOB/DFC/KFC/ZFC/AARP Section 102, Row T, Between Seats 6 And 7, 7' High
DSP: Sound Devices 722>Sound Forge 10.0>CD Wave>flac(16)
ID3 Tagged In Foobar 2000
Recorded By: Z-Man
Seeded By: Z-Man 

Disc I 

01 ?
02 ? >
03 I'll Be Around
04 *#Blue Sky
05 *#Takin' Your Time
06 *#?
07 *#Dreams

* With Duane Betts On Guitar
# With Johnny Statue On Slide Guitar

devon2018-07-21d01t01.flac:cd2664957b19015b664f8282a0bb30d9
devon2018-07-21d01t02.flac:935b5cda44690f8aadff38e474f830ee
devon2018-07-21d01t03.flac:00d2d6eb2bf5dfcb1516ceb7cd717a84
devon2018-07-21d01t04.flac:f2a3225d241ed6f4c9568423664c204e
devon2018-07-21d01t05.flac:3940457ba8e86345eae9e731a474e3be
devon2018-07-21d01t06.flac:67750b78cb3d28b2c18e5ba34cec8d59
devon2018-07-21d01t07.flac:f8728e608bcc3ff67e3589e015272fe4

 length     expanded size    cdr  WAVE problems  fmt   ratio  filename
     8:43.61       92400716 B   ---   --   ---xx   flac  0.5172  devon2018-07-21d01t01.flac
     3:23.47       35919788 B   ---   --   ---xx   flac  0.4769  devon2018-07-21d01t02.flac
     9:28.42      100294028 B   ---   --   ---xx   flac  0.4818  devon2018-07-21d01t03.flac
     7:45.53       82150700 B   ---   --   ---xx   flac  0.5304  devon2018-07-21d01t04.flac
     5:13.33       55290860 B   ---   --   ---xx   flac  0.5388  devon2018-07-21d01t05.flac
     8:20.09       88221212 B   ---   --   ---xx   flac  0.4842  devon2018-07-21d01t06.flac
    14:57.04      158240252 B   ---   --   ---xx   flac  0.4990  devon2018-07-21d01t07.flac
    57:52.24      612517556 B                            0.5033  (7 files)








More information about the bittorrent mailing list