[bittorrent] Blackberry Smoke Peach Music Festival Montage Mountain Peach Stage Scranton, Pennsylvania 7/21/2018 (Schoeps CCM4V'S FOB)

Automated Mailer noreply-bt.e at etree.org
Tue Aug 14 13:33:52 UTC 2018


Band:           Other
Torrent Name:   Blackberry Smoke Peach Music Festival Montage Mountain Peach Stage Scranton, Pennsylvania 7/21/2018 (Schoeps CCM4V'S FOB)
Uploaded by:    zmanatl
DB Link:        
Details:        http://bt.etree.org/details.php?id=600902

Contact the seeder at http://db.etree.org/zmanatl

If the link to this show does not work, it was probably removed for
being non-trade-friendly.

Description / text file:
-------------------------
Blackberry Smoke
Peach Music Festival
Montage Mountain
Peach Stage
Scranton, Pennsylvania
7/21/2018 

Source: Schoeps CCM4V's>Lunatec V2>Sound Devices 722 (24/44)
FOB/DFC/KFC/ZFC/AARP Section 102, Row T, Between Seats 6 And 7, 7' High
DSP: Sound Devices 722>Sound Forge 10.0>CD Wave>flac(16)
ID3 Tagged In Foobar 2000
Recorded By: Z-Man
Seeded By: Z-Man 

Disc I 

01 PA Introductin Music >
02 Fire in the Hole 
03 Waiting for the Thunder 
04 Let It Burn 
05 Let Sleeping Dogs Lie > 
06 Come Together >
07 Let Sleeping Dogs Lie 
08 Run Away From It All 
09 Believe You Me 
10 Medicate My Mind 
11 *Ain't Got the Blues 
12 Free on the Wing >
13 Mountain Jam > 
14 Free on the Wing
15 #One Horse Town 
16 @^Not Fade Away 
17 Amazing Grace Intro >
18 Ain't Much Left of Me 

* With Charlie On Acoustic Guitar
# With Paul On Acoustic Guitar
@ With Brandon "Taz" Niederauer On Guitar
^ With Buy You A Mockingbird Lyrics

blackberry2018-07-21d01t01.flac:9be5122c28322bbcc65bad82d0d80455
blackberry2018-07-21d01t02.flac:98f9f7d62b9c9d9daa6a0485071cd164
blackberry2018-07-21d01t03.flac:686a69a2a980a0d0b63988aeec6510c5
blackberry2018-07-21d01t04.flac:34d2652aefe051b1259a04f811dbe152
blackberry2018-07-21d01t05.flac:29c9bb4a1aea0c4bd74114144de51153
blackberry2018-07-21d01t06.flac:ad2da8c96de7acb99a2a0ace81969b33
blackberry2018-07-21d01t07.flac:726638f74a026b0d56701a219ff4c608
blackberry2018-07-21d01t08.flac:67164ce01f0a6961a9dae3cca3fc239e
blackberry2018-07-21d01t09.flac:9a6cfe1bef5bbf78e09dcdd56086c60f
blackberry2018-07-21d01t10.flac:99abe2a1a30abce8d4ade586ca6bea28
blackberry2018-07-21d01t11.flac:abc0deb03070829d910faf940b8c474f
blackberry2018-07-21d01t12.flac:a38ed5062334e38e8fe15708f343a83c
blackberry2018-07-21d01t13.flac:123d5a31baf35fb7c02c1640f545e527
blackberry2018-07-21d01t14.flac:e07fbcc42bb10171599de71780d878f2
blackberry2018-07-21d01t15.flac:e54b40d92748465fa984645cace30218
blackberry2018-07-21d01t16.flac:0ce34bbeb076c14423f3bb4703b2f2f0
blackberry2018-07-21d01t17.flac:05c0714979aaa65259da8b5a7d6227e0
blackberry2018-07-21d01t18.flac:1a4fc878eb50be7126a97fcd551d002e

length     expanded size    cdr  WAVE problems  fmt   ratio  filename
     0:27.69        4925132 B   ---   --   ---xx   flac  0.4961  blackberry2018-07-21d01t01.flac
     3:59.04       42169052 B   ---   --   ---xx   flac  0.5444  blackberry2018-07-21d01t02.flac
     4:10.09       44121212 B   ---   --   ---xx   flac  0.5412  blackberry2018-07-21d01t03.flac
     3:54.02       41282348 B   ---   --   ---xx   flac  0.4679  blackberry2018-07-21d01t04.flac
     7:54.15       83648924 B   ---   --   ---xx   flac  0.4682  blackberry2018-07-21d01t05.flac
     2:39.31       28120556 B   ---   --   ---xx   flac  0.4905  blackberry2018-07-21d01t06.flac
     3:26.48       36451340 B   ---   --   ---xx   flac  0.4716  blackberry2018-07-21d01t07.flac
     4:40.08       49410860 B   ---   --   ---xx   flac  0.5532  blackberry2018-07-21d01t08.flac
     4:00.50       42453644 B   ---   --   ---xx   flac  0.4919  blackberry2018-07-21d01t09.flac
     5:31.33       58466060 B   ---   --   ---xx   flac  0.4835  blackberry2018-07-21d01t10.flac
     5:35.11       59119916 B   ---   --   ---xx   flac  0.4396  blackberry2018-07-21d01t11.flac
     4:29.54       47578652 B   ---   --   ---xx   flac  0.4503  blackberry2018-07-21d01t12.flac
     0:40.21        7105436 B   ---   --   ---xx   flac  0.4433  blackberry2018-07-21d01t13.flac
     1:03.11       11139116 B   ---   --   ---xx   flac  0.4355  blackberry2018-07-21d01t14.flac
     5:05.02       53806748 B   ---   --   ---xx   flac  0.4872  blackberry2018-07-21d01t15.flac
     7:14.00       76557644 B   ---   --   ---xx   flac  0.4563  blackberry2018-07-21d01t16.flac
     1:53.24       19989692 B   ---   --   ---xx   flac  0.3913  blackberry2018-07-21d01t17.flac
     5:05.48       53914940 B   ---   --   ---xx   flac  0.5294  blackberry2018-07-21d01t18.flac
    71:49.65      760261272 B                            0.4842  (18 files)





More information about the bittorrent mailing list