[bittorrent] gd86-12-28.142301.fob-schoeps.unknown.da; ton-miller-clugston.t-flac16

Automated Mailer noreply-bt.e at etree.org
Tue Aug 14 11:16:24 UTC 2018


Band:           Grateful Dead
Torrent Name:   gd86-12-28.142301.fob-schoeps.unknown.da;ton-miller-clugston.t-flac16
Uploaded by:    germain
DB Link:        
Details:        http://bt.etree.org/details.php?id=600899

Contact the seeder at http://db.etree.org/germain

If the link to this show does not work, it was probably removed for
being non-trade-friendly.

Description / text file:
-------------------------
This is a tagged version of shnid: 142301

Grateful Dead 
Henry J. Kaiser Convention Center  
Oakland, CA
Sunday December 28th, 1986

Source Info:
Master (FOB) PCM; Unknown Schoeps mics > PCM

Transfer Info:
PCM (Sony SL-10)> Sony PCM-601ESD > Behringer Ultramatch Pro > 
Tascam DA-3000 (wav 16-bit/44.1k)> Adobe Audition 3.0 > TLH flac16

Notes:
- Thanks to Tim Dalton for the source PCM
- Thanks to Charlie Miller for the transfer and coordinating this effort
- Thanks to Charlie Miller for the shnid99637 ultramatrix source which supplies 
  "Guess we can't fool you guys" and the first several notes of the noodle 
  into "Scarlet Begonias" (0:23 total)
- Outstanding capture, imo

Mastered by Scott Clugston
June 12, 2018
___________________________________________________________________________________________________

--Set One--
101-t01 - Crowd
102-t02 - Cold Rain & Snow
103-t03 - New Minglewood Blues
104-t04 - Row Jimmy 
105-t05 - El Paso
106-t06 - Stagger Lee
107-t07 - Box Of Rain 
108-t08 - Big Railroad Blues >
109-t09 - Promised Land

--Set Two--
201-t10 - Scarlet Begonias >
202-t11 - Fire On The Mountain >
203-t12 - Looks Like Rain >
204-t13 - He's Gone >
205-t14 - Drums >
206-t15 - Space >
207-t16 - The Other One >
208-t17 - Black Peter >
209-t18 - Sugar Magnolia
210-t19 - Encore Break
211-t20 - It's All Over Now, Baby Blue
___________________________________________________________________________________________________

Tagging notes:
Show information is embedded within the header of each flac file.
It will display on any player capable of directly playing flac files.
If converted to wav during processing, all tags will be stripped, 
however audio data will remain unaffected.
If you must transcode to a lossy format, do so directly Flac > Lossy.
Use ffp to validate audio integrity.
Md5 values will change if tagging is altered.
B. Proctor 06-27-2018
___________________________________________________________________________________________________


    length     expanded size    cdr  WAVE problems  fmt   ratio  filename
     1:45.20       18569084 B   ---   --   ---xx   flac  0.5284  gd86-12-28 t01 Crowd.flac
     6:40.69       70722332 B   ---   --   ---xx   flac  0.6572  gd86-12-28 t02 Cold Rain & Snow.flac
     7:58.47       84429788 B   ---   --   ---xx   flac  0.6229  gd86-12-28 t03 New Minglewood Blues.flac
     9:41.57      102622508 B   ---   --   ---xx   flac  0.6165  gd86-12-28 t04 Row Jimmy.flac
     5:49.13       61594220 B   ---   --   ---xx   flac  0.6097  gd86-12-28 t05 El Paso.flac
     7:05.70       75134684 B   ---   --   ---xx   flac  0.6159  gd86-12-28 t06 Stagger Lee.flac
     4:59.08       52762460 B   ---   --   ---xx   flac  0.6391  gd86-12-28 t07 Box Of Rain.flac
     4:07.21       43620236 B   ---   --   ---xx   flac  0.6733  gd86-12-28 t08 Big Railroad Blues.flac
     4:13.06       44643356 B   ---   --   ---xx   flac  0.6687  gd86-12-28 t09 Promised Land.flac
     8:19.09       88044812 B   ---   --   ---xx   flac  0.6513  gd86-12-28 t10 Scarlet Begonias.flac
     9:18.11       98457116 B   ---   --   ---xx   flac  0.6356  gd86-12-28 t11 Fire On The Mountain.flac
     7:56.57       84100508 B   ---   --   ---xx   flac  0.6045  gd86-12-28 t12 Looks Like Rain.flac
    11:04.37      117216668 B   ---   --   ---xx   flac  0.5750  gd86-12-28 t13 He's Gone.flac
     8:28.41       89707676 B   ---   --   ---xx   flac  0.5634  gd86-12-28 t14 Drums.flac
     8:03.02       85205948 B   ---   --   ---xx   flac  0.4787  gd86-12-28 t15 Space.flac
     5:31.60       58529564 B   ---   --   ---xx   flac  0.6106  gd86-12-28 t16 The Other One.flac
     9:02.66       95764076 B   ---   --   ---xx   flac  0.5985  gd86-12-28 t17 Black Peter.flac
     7:11.66       76183676 B   ---   --   ---xx   flac  0.6636  gd86-12-28 t18 Sugar Magnolia.flac
     1:23.59       14780012 B   ---   --   ---xx   flac  0.5493  gd86-12-28 t19 Encore Break.flac
     7:25.02       78502748 B   ---   --   ---xx   flac  0.6000  gd86-12-28 t20 It's All Over Now, Baby Blue.flac
   136:06.46     1440591472 B                            0.6089  (20 files)

No errors occured.



More information about the bittorrent mailing list