[bittorrent] Barry Richman Band Dixie Tavern Smyrna, Georgia 8/13/2018 (Schoeps CCM4V'S FOB)

Automated Mailer noreply-bt.e at etree.org
Tue Aug 14 04:40:29 UTC 2018


Band:           Other
Torrent Name:   Barry Richman Band Dixie Tavern Smyrna, Georgia 8/13/2018 (Schoeps CCM4V'S FOB)
Uploaded by:    zmanatl
DB Link:        
Details:        http://bt.etree.org/details.php?id=600895

Contact the seeder at http://db.etree.org/zmanatl

If the link to this show does not work, it was probably removed for
being non-trade-friendly.

Description / text file:
-------------------------
Barry Richman
Dixie Tavern
Smyrna, Georgia
8/13/2018 

Source: Schoeps CCM4V's>Lunatec V2>Sound Devices 722 (24/44)
FOB/DFC/KFC/ZFC/AARP 20' From Stage, 7' High
DSP: Sound Devices 722>Sound Forge 10.0>CD Wave>flac(16)
ID3 Tagged In Foobar 2000
Recorded By: Z-Man
Seeded By: Z-Man 

Disc I 

01 Greeting
02 Further On Up The Road
03 Ain't No Love
04 Lucky Day
05 Into The Mystic
06 Them Changes >
07 Third Stone From The Sun Jam >
08 Them Changes 
09 Band Introductions/Merchandise Promotion
10 Macon

Barry Richman - Guitar
Reynard Clark - Bass And Vocals
Bill Diehl - Drums

barry2018-08-13d01t01.flac:724821b06fd7a720ba70d10891709de3
barry2018-08-13d01t02.flac:3deb6c3c6ee2d4ea9d6e1988259b5ca1
barry2018-08-13d01t03.flac:f386d54862a2f4d1adc91bc2134a2dc0
barry2018-08-13d01t04.flac:3a70d52d18985a0066986da7a5ee4653
barry2018-08-13d01t05.flac:94e81cf4774d5aa28644179ff60e8cb5
barry2018-08-13d01t06.flac:c25dc0a8b576800e1aea55fe0aea84ce
barry2018-08-13d01t07.flac:f45a641b29d374f74304d7c86a9d9884
barry2018-08-13d01t08.flac:f7384c1ddbf68472d3138b2aa10f9461
barry2018-08-13d01t09.flac:0360f95a6ae394e57f7e17cff4a8f7f0
barry2018-08-13d01t10.flac:cb99b57b8b48eb373873f833f707235f

length     expanded size    cdr  WAVE problems  fmt   ratio  filename
     0:56.42        9977228 B   ---   --   ---xx   flac  0.3235  barry2018-08-13d01t01.flac
     5:26.44       57609932 B   ---   --   ---xx   flac  0.4894  barry2018-08-13d01t02.flac
     9:04.07       95978108 B   ---   --   ---xx   flac  0.4979  barry2018-08-13d01t03.flac
     5:17.33       55996460 B   ---   --   ---xx   flac  0.4809  barry2018-08-13d01t04.flac
     5:43.24       60561692 B   ---   --   ---xx   flac  0.4510  barry2018-08-13d01t05.flac
     3:34.51       37869596 B   ---   --   ---xx   flac  0.5543  barry2018-08-13d01t06.flac
     0:46.68        8274380 B   ---   --   ---xx   flac  0.4962  barry2018-08-13d01t07.flac
     1:08.44       12098732 B   ---   --   ---xx   flac  0.5710  barry2018-08-13d01t08.flac
     2:23.33       25302860 B   ---   --   ---xx   flac  0.3562  barry2018-08-13d01t09.flac
     4:10.69       44262332 B   ---   --   ---xx   flac  0.5215  barry2018-08-13d01t10.flac
    38:32.40      407931320 B                            0.4843  (10 files)





More information about the bittorrent mailing list