[bittorrent] Little Feat And moe. Performing "Waiting For Columbus" Peach Music Festival Montage Mountain Peach Stage Scranton, Pennsylvania 7/20/2018 (Schoeps CCM4V'S FOB)

Automated Mailer noreply-bt.e at etree.org
Mon Aug 13 21:28:25 UTC 2018


Band:           Little Feat
Torrent Name:   Little Feat And moe. Performing "Waiting For Columbus" Peach Music Festival Montage Mountain Peach Stage Scranton, Pennsylvania 7/20/2018 (Schoeps CCM4V'S FOB)
Uploaded by:    zmanatl
DB Link:        
Details:        http://bt.etree.org/details.php?id=600884

Contact the seeder at http://db.etree.org/zmanatl

If the link to this show does not work, it was probably removed for
being non-trade-friendly.

Description / text file:
-------------------------
Little Feat/moe.
Performing "Waiting For Columbus"
Peach Music Festival
Montage Mountain
Peach Stage
Scranton, Pennsylvania
7/19/2018 

Source: Schoeps CCM4V's>Lunatec V2>Sound Devices 722 (24/44)
FOB/DFC/KFC/ZFC/AARP Section 102, Row U, Seat 7, 7' High
DSP: Sound Devices 722>Sound Forge 10.0>CD Wave>flac(16)
ID3 Tagged In Foobar 2000
Recorded By: Z-Man
Seeded By: Z-Man 

Disc I 

01 *Join The Band
02 *#@Fat Man In The Bath Tub
03 #@All That You Dream
04 Oh Atlanta
05 Old Folks Boogie
06 Time Loves A Hero
07 Day Or Night  

Disc II 

01 *Spanish Moon
02 *Willin' >
03 *Don't Bogart That Joint >
04 *Willin'
05 *#@Dixie Chicken
06 *#@Feats Don't Fail Me Now

* With All Members of Both Bands
# With Turkauz Horns:
Chris Brouwers - Trumpet
Greg Sanderson - Saxophone
Josh Schwartz - Saxophone
@ With Midnight Ramble Horns:
Steven Bernstein - Trumpet
Jay Collins- Saxophone
Erik Lawrence - Saxophone

Little Feat:

Paul Barrere - Guitar And Vocals
Sam Clayton - Percussion And Vocals
Kenny Gradney - Bass 
Bill Payne - Keyboards And Vocals
Fred Tackett - Guitar, Mandolin, Trumpet, And Vocals
Gabe Ford - Drums

moe.:

Rob Derhak - Bass And Vocals
Chuck Garvey - Guitar And Vocals
Al Schnier - Guitar And Vocals
Jim Loughlin - Percussion And Vocals
Vinnie Amico - Drums

littlefeat2018-07-21d01t01.flac:435e150bb5d4dd26669ffd74da444544
littlefeat2018-07-21d01t02.flac:45c6b3b572c8646893ab8da5fea34c59
littlefeat2018-07-21d01t03.flac:d0ca618e1ffb6518963a1a58cac80833
littlefeat2018-07-21d01t04.flac:de88e01835c8a846e1fcb2efcbc8948e
littlefeat2018-07-21d01t05.flac:e1aab6e7552027c5f0a505543aa2e785
littlefeat2018-07-21d01t06.flac:06218d3c59d2ab758a7792151b28ccef
littlefeat2018-07-21d01t07.flac:751ae01200d1f9e06899c5aee34798b9
littlefeat2018-07-21d02t01.flac:3b7f280f8bb40b0148644c97b58f788b
littlefeat2018-07-21d02t02.flac:dd02a2f6d0ed55e5d7b3cbdf3db24b1f
littlefeat2018-07-21d02t03.flac:84f49f0351ee9ee181a003b5c5e3f9ff
littlefeat2018-07-21d02t04.flac:59ab00002c07ed6e9d346e947322b001
littlefeat2018-07-21d02t05.flac:3e9bd63e0ef98051d851919b890661e9
littlefeat2018-07-21d02t06.flac:09d677ccf49026d2db6dc91126d654ad

 length     expanded size    cdr  WAVE problems  fmt   ratio  filename
     1:24.12       14845868 B   ---   --   ---xx   flac  0.3856  littlefeat2018-07-21d01t01.flac
     8:29.29       89855852 B   ---   --   ---xx   flac  0.5033  littlefeat2018-07-21d01t02.flac
     7:34.47       80196188 B   ---   --   ---xx   flac  0.5175  littlefeat2018-07-21d01t03.flac
     4:38.65       49192124 B   ---   --   ---xx   flac  0.5210  littlefeat2018-07-21d01t04.flac
     6:48.12       71999468 B   ---   --   ---xx   flac  0.5146  littlefeat2018-07-21d01t05.flac
     5:19.03       56278700 B   ---   --   ---xx   flac  0.5274  littlefeat2018-07-21d01t06.flac
    10:00.12      105868268 B   ---   --   ---xx   flac  0.5180  littlefeat2018-07-21d01t07.flac
    11:16.28      119312300 B   ---   --   ---xx   flac  0.5321  littlefeat2018-07-21d02t01.flac
     8:01.54       84975452 B   ---   --   ---xx   flac  0.4284  littlefeat2018-07-21d02t02.flac
     1:18.69       13921532 B   ---   --   ---xx   flac  0.4345  littlefeat2018-07-21d02t03.flac
     1:08.73       12166940 B   ---   --   ---xx   flac  0.4141  littlefeat2018-07-21d02t04.flac
    11:20.26      120013196 B   ---   --   ---xx   flac  0.4981  littlefeat2018-07-21d02t05.flac
     5:44.33       60759260 B   ---   --   ---xx   flac  0.5290  littlefeat2018-07-21d02t06.flac
    83:05.13      879385148 B                            0.5032  (13 files)





More information about the bittorrent mailing list