[bittorrent] Twiddle Peach Music Festival Montage Mountain Peach Stage Scranton, Pennsylvania 7/19/2018 (Schoeps CCM4V'S FOB)

Automated Mailer noreply-bt.e at etree.org
Sun Aug 12 20:25:16 UTC 2018


Band:           Other
Torrent Name:   Twiddle Peach Music Festival Montage Mountain Peach Stage Scranton, Pennsylvania 7/19/2018 (Schoeps CCM4V'S FOB)
Uploaded by:    zmanatl
DB Link:        
Details:        http://bt.etree.org/details.php?id=600872

Contact the seeder at http://db.etree.org/zmanatl

If the link to this show does not work, it was probably removed for
being non-trade-friendly.

Description / text file:
-------------------------
Twiddle
Peach Music Festival
Montage Mountain
Peach Stage
Scranton, Pennsylvania
7/19/2018 

Source: Schoeps CCM4V's>Lunatec V2>Sound Devices 722 (24/44)
FOB/DFC/KFC/ZFC/AARP Section 102, Row U, Seat 7, 7' High
DSP: Sound Devices 722>Sound Forge 10.0>CD Wave>flac(16)
ID3 Tagged In Foobar 2000
Recorded By: Z-Man
Seeded By: Z-Man 

Disc I 

01 Greeting
02 Syncopated Healing
03 Polluted Beauty 
04 Nicodemus Portulay
05 The Box
06 Latin Tang

twiddle2018-07-19d01t01.flac:1c1b9f7a72787668a59448a6f398bacc
twiddle2018-07-19d01t02.flac:f3461aa31b6f9e005d9153d7ed3a115e
twiddle2018-07-19d01t03.flac:255caada72813f7b644abf32d95cd5f9
twiddle2018-07-19d01t04.flac:a0954cc3cd6035fc1c69dec3b33f723c
twiddle2018-07-19d01t05.flac:27611110cb8c566659196550ce20fb45
twiddle2018-07-19d01t06.flac:e7b8c029712df9b82a5a2407a5a24ac6

length     expanded size    cdr  WAVE problems  fmt   ratio  filename
     0:17.60        3139964 B   ---   --   ---xx   flac  0.3431  twiddle2018-07-19d01t01.flac
    10:26.48      110539340 B   ---   --   ---xx   flac  0.4478  twiddle2018-07-19d01t02.flac
    19:53.43      210546380 B   ---   --   ---xx   flac  0.4527  twiddle2018-07-19d01t03.flac
    14:56.53      158179100 B   ---   --   ---xx   flac  0.4777  twiddle2018-07-19d01t04.flac
    16:05.39      170317772 B   ---   --   ---xx   flac  0.4654  twiddle2018-07-19d01t05.flac
    12:50.61      135971516 B   ---   --   ---xx   flac  0.4687  twiddle2018-07-19d01t06.flac
    74:31.04      788694072 B                            0.4621  (6 files)






More information about the bittorrent mailing list