[bittorrent] gd86-12-27.128690.mtx,nicksmix.fc16

Automated Mailer noreply-bt.e at etree.org
Sun Aug 12 11:09:43 UTC 2018


Band:           Grateful Dead
Torrent Name:   gd86-12-27.128690.mtx,nicksmix.fc16
Uploaded by:    germain
DB Link:        
Details:        http://bt.etree.org/details.php?id=600838

Contact the seeder at http://db.etree.org/germain

If the link to this show does not work, it was probably removed for
being non-trade-friendly.

Description / text file:
-------------------------
Grateful Dead
Henry J. Kaiser Convention Center
Oakland, California
December 27, 1986

2 Source matrix mix of shnid 81267(aud) and shnid 99050(sbd) with patches used from shnid 88965(aud)

Mixed by Nick Crump
Eugene, Oregon
May 2014

Shnid 88965 was used to patch several cuts in shnid 81267:
  35 seconds before Playin in the Band (1st set- all crowd noise)
  33 seconds between Bertha and Mama Tried (all crowd noise)
  18 seconds between Mexicali and Ramble On Rose (all crowd noise)
  2:30 before Iko Iko (all crowd noise)
  27 seconds between Iko Iko and Looks Like Rain (all crowd noise)
  1:04 during Drums
There are still some gaps between songs in the first set. These were left as is to preserve the pace of the show. There will be some "dead air".
Set 2 will fit on an 80 minute CD.

Source 1(audience): gd1986-12-27.nakcm304.beckham.suraci.sbeok.81267.flac16
  Source: *Nakamichi CM304's>Sony D5M
  Location: OTS Floor, Stand at 9 Feet
  Transfer: Nak CR5A>Lunatec V3(analog out)>722 at 24/96
  Editing: Adobe Audition 2.0 dither and resample 16Bit>Cdwav/tracking>flac16
  Tapers: *Don Beckham and Tony Suraci
  Transfer and upload by Tony Suraci
  *Thanks to Don for running my rig.
  Notes: This is the 16Bit version. 24 Bit is archived on DVDA.

Source 2(soundboard): gd1986-12-27.sbd.walker-scotton.miller.99050.sbeok.flac16
  Recording Info: 
  SBD -> Cassette Master (Sony D5/TDK MX-XG90/Dolby B) 
  Transfer Info: 
  Cassette Master (Nakamichi DR-1/Dolby B) -> Sound Devices 744T (24bit/96k) ->
  Samplitude Professional v10.2.1 -> FLAC/16
  (2 Discs Audio / 2 Discs FLAC) 
  All Transfers and Mastering By Charlie Miller 
  charliemiller87 at earthlink.net 
  May 14, 2009
  Notes:
  -- Thanks to Paul Scotton and Joani Walker for the tapes

Patch source(audience): gd1986-12-27.nak300.damico.88965.flac16
  taper : Joe D'Amico ''aka'' Joebeacon
  nak 300 mics w/ cp4 shotguns > sony d-5
  nak dragon tape deck > sony sbm1 > creative extigy soundcard > cool edit pro > flac frontend

--Set 1--
101-d1t01 - Playing in the Band ->
102-d1t02 - Bertha
103-d1t03 - Mama Tried ->
104-d1t04 - Mexicali Blues
105-d1t05 - Ramble on Rose
106-d1t06 - Little Red Rooster
107-d1t07 - Bird Song

--Set 2--
201-d2t01 - Tuning
202-d2t02 - The Mighty Quinn (Quinn The Eskimo)
203-d2t03 - Dancin' in the Street ->
204-d2t04 - Black Muddy River ->
205-d2t05 - Playin' Jam ->
206-d2t06 - I Need a Miracle ->
207-d2t07 - Drums ->
208-d2t08 - Space ->
209-d2t09 - Truckin' ->
210-d2t10 - Smokestack Lightning ->
211-d2t11 - Comes a Time ->
212-d2t12 - Around & Around ->
213-d2t13 - Playing in the Band

--Encore--
214-d2t14 - When Push Comes To Shove

Thanks to Tony Suraci, Don Beckham, Charlie Miller, Paul Scotton, Joani Walker and Joe D'Amico for providing the sources used for this mix.

    length     expanded size    cdr  WAVE problems  fmt   ratio  filename
     7:27.06       78864956 B   ---   --   ---xx   flac  0.6175  gd86-12-27d1t01.flac
     8:13.08       86984060 B   ---   --   ---xx   flac  0.6119  gd86-12-27d1t02.flac
     2:35.48       27454940 B   ---   --   ---xx   flac  0.6460  gd86-12-27d1t03.flac
     5:19.24       56328092 B   ---   --   ---xx   flac  0.6342  gd86-12-27d1t04.flac
     8:07.54       86033852 B   ---   --   ---xx   flac  0.5863  gd86-12-27d1t05.flac
     9:01.25       95491244 B   ---   --   ---xx   flac  0.6231  gd86-12-27d1t06.flac
     8:47.50       93080444 B   ---   --   ---xx   flac  0.6171  gd86-12-27d1t07.flac
     2:58.44       31502732 B   ---   --   ---xx   flac  0.4862  gd86-12-27d2t01.flac
     5:33.03       58748300 B   ---   --   ---xx   flac  0.6084  gd86-12-27d2t02.flac
     7:13.08       76400060 B   ---   --   ---xx   flac  0.6344  gd86-12-27d2t03.flac
     5:57.43       63075980 B   ---   --   ---xx   flac  0.6069  gd86-12-27d2t04.flac
     3:39.28       38697500 B   ---   --   ---xx   flac  0.5979  gd86-12-27d2t05.flac
     5:51.47       62026988 B   ---   --   ---xx   flac  0.6178  gd86-12-27d2t06.flac
     9:30.27      100611548 B   ---   --   ---xx   flac  0.5611  gd86-12-27d2t07.flac
     6:32.53       69273500 B   ---   --   ---xx   flac  0.5508  gd86-12-27d2t08.flac
     6:04.52       64331948 B   ---   --   ---xx   flac  0.6549  gd86-12-27d2t09.flac
     3:45.17       39730028 B   ---   --   ---xx   flac  0.6198  gd86-12-27d2t10.flac
     7:19.68       77599580 B   ---   --   ---xx   flac  0.5785  gd86-12-27d2t11.flac
     4:08.07       43763708 B   ---   --   ---xx   flac  0.6537  gd86-12-27d2t12.flac
     2:57.47       31333388 B   ---   --   ---xx   flac  0.6328  gd86-12-27d2t13.flac
     4:46.14       50483372 B   ---   --   ---xx   flac  0.6318  gd86-12-27d2t14.flac
   125:49.73     1331816220 B                            0.6072  (21 files)




More information about the bittorrent mailing list