[bittorrent] The Bitteroots Woodstock Summer Concert Series Northside Hospital Cherokee Amphitheatre The Park At City Center Woodstock, Georgia 8/11/2018 (Schoeps CCM4V's FOB)

Automated Mailer noreply-bt.e at etree.org
Sun Aug 12 04:15:45 UTC 2018


Band:           Other
Torrent Name:   The Bitteroots Woodstock Summer Concert Series Northside Hospital Cherokee Amphitheatre The Park At City Center Woodstock, Georgia 8/11/2018 (Schoeps CCM4V's FOB)
Uploaded by:    zmanatl
DB Link:        
Details:        http://bt.etree.org/details.php?id=600834

Contact the seeder at http://db.etree.org/zmanatl

If the link to this show does not work, it was probably removed for
being non-trade-friendly.

Description / text file:
-------------------------
The Bitteroots
Woodstock Summer Concert Series
Northside Hospital Cherokee Amphitheatre
The Park At City Center
Woodstock, Georgia
8/11/2018 

Source: Schoeps CCM4V's>Lunatec V2>Sound Devices 722 (24/44)
FOB/DFC/KFC/ZFC/AARP 50' From Stage, 6 1/2' High
DSP: Sound Devices 722>Sound Forge 10.0>CD Wave>flac(16)
ID3 Tagged In Foobar 2000
Recorded By: Z-Man
Seeded By: Z-Man 

Disc 

01 Introduction By Dr. Cathy Colby
02 Desperate >
03 Try Me Again >
04 Other Door
05 Clearly
06 No Demands
07 Souvenirs
08 Band Introductions
09 Let's Go
10 Upside Down
11 French Fries

Bill Taylor - Bass And Vocals
Laura Dees - Vocals
Mike Davis - Drums
Derron Nuhfer - Saxophone
PJ - Guitar

thebitter2018-08-11d01t01.flac:3553433d223d3408a94029d8f907ee98
thebitter2018-08-11d01t02.flac:0a8ee8a3607b144ced05001e3d108b25
thebitter2018-08-11d01t03.flac:871a6938fdbbea02e9a85bbedd377782
thebitter2018-08-11d01t04.flac:eed5e945faca9f80f504f543c8b00909
thebitter2018-08-11d01t05.flac:038f98ca2a84a3d48bac589dab6c9b4e
thebitter2018-08-11d01t06.flac:202841566c2389e69ac7b8d346ba32fc
thebitter2018-08-11d01t07.flac:80ba621c3bc667d577ecb327dc25c520
thebitter2018-08-11d01t08.flac:376a34cc8cd76096b29352cf3ae0f818
thebitter2018-08-11d01t09.flac:49095f2fb0df3f3ae08b55f7830b03dd
thebitter2018-08-11d01t10.flac:7952c45e9f923dc4e6f588bd9afda891
thebitter2018-08-11d01t11.flac:dbc9feb75b73fc5c24351438419e6df7

length     expanded size    cdr  WAVE problems  fmt   ratio  filename
     3:17.64       34901372 B   ---   --   ---xx   flac  0.3636  thebitter2018-08-11d01t01.flac
     4:04.57       43175708 B   ---   --   ---xx   flac  0.5154  thebitter2018-08-11d01t02.flac
     4:56.15       52249724 B   ---   --   ---xx   flac  0.4905  thebitter2018-08-11d01t03.flac
     3:37.33       38356460 B   ---   --   ---xx   flac  0.4849  thebitter2018-08-11d01t04.flac
     2:58.58       31535660 B   ---   --   ---xx   flac  0.4544  thebitter2018-08-11d01t05.flac
     4:00.52       42458348 B   ---   --   ---xx   flac  0.5064  thebitter2018-08-11d01t06.flac
     4:12.55       44582204 B   ---   --   ---xx   flac  0.4905  thebitter2018-08-11d01t07.flac
     0:42.28        7474700 B   ---   --   ---xx   flac  0.3723  thebitter2018-08-11d01t08.flac
     3:43.51       39457196 B   ---   --   ---xx   flac  0.5140  thebitter2018-08-11d01t09.flac
     7:04.10       74817164 B   ---   --   ---xx   flac  0.4685  thebitter2018-08-11d01t10.flac
     4:11.52       44398748 B   ---   --   ---xx   flac  0.4811  thebitter2018-08-11d01t11.flac
    42:50.25      453407284 B                            0.4771  (11 files)




More information about the bittorrent mailing list