[bittorrent] ph2018-07-28.142880.schoeps-cmc6-mk4.miller.flac1644

Automated Mailer noreply-bt.e at etree.org
Sat Aug 11 22:04:02 UTC 2018


Band:           Phish
Torrent Name:   ph2018-07-28.142880.schoeps-cmc6-mk4.miller.flac1644
Uploaded by:    mvernon
DB Link:        
Details:        http://bt.etree.org/details.php?id=600825

Contact the seeder at http://db.etree.org/mvernon

If the link to this show does not work, it was probably removed for
being non-trade-friendly.

Description / text file:
-------------------------
Phish - July 28, 2018
The Forum - Inglewood, CA

Recording Info:
Schoeps CMC6/MK4 > Lunatec V2 > Sound Devices 744T (24-bit/96k) >
Samplitude Pro X3 Suite > FLAC/16
(3 Discs Audio / 1 DVD FLAC)

Recorded by Charlie Miller
charliemiller87 at earthlink.net
August 4, 2018

Notes:
-- Mic stand was 9ft high with mics aimed at stacks
-- I was set up at front right corner of sound booth

Set 1:
01 - Tuning
02 - Julius
03 - Suzy Greenberg
04 - Timber Ho!
05 - Soul Shakedown Party
06 - Kill Devil Falls
07 - 555
08 - Your Pet Cat
09 - Tide Turns
10 - No Men In No Man's Land
11 - Bathtub Gin

Set 2:
12 - Tuning
13 - Gotta Jibboo
14 - Fuego
15 - Birds Of A Feather
16 - Meatstick
17 - Soul Planet
18 - Wingsuit
19 - Cavern

Encore:
20 - Encore Break
21 - Sparkle
22 - Character Zero


SHNTOOL OUTPUT:
    length     expanded size    cdr  WAVE problems  fmt   ratio  filename
     0:50.33        8897660 B   ---   --   ---xx   flac  0.5274  01 Tuning.flac
     8:25.34       89162012 B   ---   --   ---xx   flac  0.5975  02 Julius.flac
     5:37.25       59505644 B   ---   --   ---xx   flac  0.5894  03 Suzy Greenburg.flac
     8:24.53       89030300 B   ---   --   ---xx   flac  0.5550  04 Timber Ho!.flac
     5:29.03       58042700 B   ---   --   ---xx   flac  0.5757  05 Soul Shakedown Party.flac
    12:22.30      130959404 B   ---   --   ---xx   flac  0.5884  06 Kill Devil Falls.flac
     6:43.65       71242124 B   ---   --   ---xx   flac  0.5757  07 555.flac
     5:19.09       56292812 B   ---   --   ---xx   flac  0.5884  08 Your Pet Cat.flac
     6:33.48       69438140 B   ---   --   ---xx   flac  0.5527  09 Tide Turns.flac
     9:04.23       96015740 B   ---   --   ---xx   flac  0.6033  10 No Men In No Man's Land.flac
    11:42.60      123973964 B   ---   --   ---xx   flac  0.5641  11 Bathtub Gin.flac
     0:54.66        9680876 B   ---   --   ---xx   flac  0.4613  12 Tuning.flac
    13:21.56      141428156 B   ---   --   ---xx   flac  0.5864  13 Gotta Jibboo.flac
    17:45.63      188014220 B   ---   --   ---xx   flac  0.5642  14 Fuego.flac
     6:09.49       65206892 B   ---   --   ---xx   flac  0.5926  15 Birds Of A Feather.flac
     5:20.24       56504492 B   ---   --   ---xx   flac  0.5906  16 Meatstick.flac
    16:11.56      171416156 B   ---   --   ---xx   flac  0.5890  17 Soul Planet.flac
     9:38.61      102102716 B   ---   --   ---xx   flac  0.5610  18 Wingsuit.flac
     4:48.44       50906732 B   ---   --   ---xx   flac  0.6075  19 Cavern.flac
     2:44.56       29061356 B   ---   --   ---xx   flac  0.4935  20 Encore Break.flac
     3:33.33       37650860 B   ---   --   ---xx   flac  0.5842  21 Sparkle.flac
     7:22.18       78011180 B   ---   --   ---xx   flac  0.5993  22 Character Zero.flac
   168:25.09     1782544136 B                            0.5784  (22 files)





More information about the bittorrent mailing list